Deadliest Catch S12E13 Fire at Sea Part1 720p HDTV x264-DHD[rartv]

seeders: 75
leechers: 6
updated:
Added by z0n3212.56M in TV
Torrent verified. Downloaded 6,214 times.

DownloadFast Safe Anonymous
movies, software, shows...
  • View all Deadliest Catch episodes
  • Episode title: Fire at Sea (1)
  • Episode: S12E13
  • Air date: 21 June 2016
  • IMDb link: 0446809
  • TVmaze link: Deadliest Catch
  • Original run: 12 April 2005 — Present
  • Summary:

    A documentary series chronicling the real-life high-sea adventures of the Alaskan crab fishermen. This is the most deadly profession in the world

    Written by DeadShot10146.97K
Available in versions: 1080p720p480pHDTVWEBRipx264x265
Deadliest Catch S12E13 Fire at Sea Part1 720p HDTV x264-DHD[rartv] (Size: 1013.92 MB)
  Deadliest.Catch.S12E13.Fire.at.Sea.Part1.720p.HDTV.x264-DHD.mkv 1013.92 MB
  rarbg.com.txt 34 bytes
  deadliest.catch.s12e13.720p-dhd.nfo 369 bytes

Description


https://rarbg.to
Deadliest.Catch.S12E13.Fire.at.Sea.Part1.720p.HDTV.x264-DHD[rartv]

image
Screens :

image
Mediainfo :

Video
ID : 1
Format : AVC
Format/Info : Advanced Video Codec
Format profile : [email protected]
Format settings, CABAC : Yes
Format settings, ReFrames : 5 frames
Codec ID : V_MPEG4/ISO/AVC
Duration : 41mn 21s
Bit rate : 3 042 Kbps
Width : 1 280 pixels
Height : 720 pixels
Display aspect ratio : 16:9
Frame rate mode : Constant
Frame rate : 29.970 (30000/1001) fps
Color space : YUV
Chroma subsampling : 4:2:0
Bit depth : 8 bits
Scan type : Progressive
Bits/(Pixel*Frame) : 0.110
Stream size : 900 MiB (89%)
Writing library : x264 core 148 r2694 3b70645
Encoding settings : cabac=1 / ref=5 / deblock=1:0:0 / analyse=0x3:0x113 / me=umh / subme=8 / psy=1 / psy_rd=1.00:0.00 / mixed_ref=1 / me_range=16 / chroma_me=1 / trellis=1 / 8x8dct=1 / cqm=0 / deadzone=21,11 / fast_pskip=1 / chroma_qp_offset=-2 / threads=12 / lookahead_threads=2 / sliced_threads=0 / nr=0 / decimate=1 / interlaced=0 / bluray_compat=0 / constrained_intra=0 / bframes=3 / b_pyramid=2 / b_adapt=2 / b_bias=0 / direct=3 / weightb=1 / open_gop=0 / weightp=2 / keyint=250 / keyint_min=25 / scenecut=40 / intra_refresh=0 / rc_lookahead=50 / rc=crf / mbtree=1 / crf=21.0 / qcomp=0.60 / qpmin=0 / qpmax=69 / qpstep=4 / ip_ratio=1.40 / aq=1:1.00
Default : Yes
Forced : No
Color range : Limited
Matrix coefficients : BT.709

Audio
ID : 2
Format : AC-3
Format/Info : Audio Coding 3
Mode extension : CM (complete main)
Format settings, Endianness : Big
Codec ID : A_AC3
Duration : 41mn 21s
Bit rate mode : Constant
Bit rate : 384 Kbps
Channel(s) : 6 channels
Channel positions : Front: L C R, Side: L R, LFE
Sampling rate : 48.0 KHz
Frame rate : 31.250 fps (1536 spf)
Compression mode : Lossy
Stream size : 114 MiB (11%)
Default : Yes
Forced : No

Text
ID : 3
Format : UTF-8
Codec ID : S_TEXT/UTF8
Codec ID/Info : UTF-8 Plain Text
Duration : 41mn 19s
Bit rate : 73 bps
Count of elements : 339
Stream size : 22.2 KiB (0%)
Language : English
Default : No
Forced : No

Related Torrents

torrent name size files age seed leech

Sharing Widget


Download torrent
1013.92 MB
seeders:89
leechers:3
Deadliest Catch S12E13 Fire at Sea Part1 720p HDTV x264-DHD[rartv]



To share this torrent use the code below and insert it into comments, status messages, forum posts or your signature.

Torrent: Deadliest Catch S12E13 Fire ...t1 720p HDTV x264-DHD[rartv]

Trackers

tracker name
udp://tracker.openbittorrent.com:80/announce
udp://tracker.publicbt.com:80/announce
udp://tracker.coppersurfer.tk:6969/announce
udp://9.rarbg.me:2710/announce
udp://p4p.arenabg.com:1337/announce
http://tracker.trackerfix.com/announce
udp://9.rarbg.to:2710/announce
udp://tracker.opentrackr.org:1337/announce
µTorrent compatible trackers list

Locations

name
KickassTorrents
Torrent hash: 24E4CAC0691E9E97D6EAB761D3434D9E095BAFCA

All Comments

audio
9/10
video
9/10
please, leave only comments related to that torrent
Sign In

audio: 9video: 9
Thanks. pirate
great work thanks! have you got part 2?? cheers
audio: 9video: 9
Great HDTV Video and Audio Quality. Viewed with VLC. No Issues.
audio: 10video: 10
Thanks!
audio: 9video: 9
REALLY GOOD STUFF ---> Thanks 4 the upload
audio: 10video: 10
Thanks z0n321
Show More All

User Opinions

[bonkai77]31.4K, thecookiejar22.37K, Gooner796734, Daikaiju7105810, Obey2432, mo-jito2397, Carete2286, murphman5551506, longtan364, mullking351 ... And 85 more
Report a bug Open chat