Fear the Walking Dead S01E03 - The Dog [1080p.WEB-DL.H.264.AC3] [Lektor PL] [POLISH VOICE OVER]

Removed by the request of copyright owner and not available for download, 20 hours ago

Added by serdix143.71K in TV
Torrent verified. Downloaded 2,185 times.

DownloadFast Safe Anonymous
movies, software, shows...
  • View all Fear The Walking Dead episodes
  • Episode title: The Dog
  • Episode: S01E03
  • Air date: 13 September 2015
  • IMDb link: 3743822
  • TVmaze link: Fear The Walking Dead
  • Original run: 05 June 2015 — Present
  • Summary:

    What did the world look like as it was transforming into the horrifying apocalypse depicted in "The Walking Dead"? This spin-off set in Los Angeles, following new characters as they face the beginning of the end of the world, will answer that question.

    Written by Rocky_45121.66K Last edited by sumi, 9 months ago
Available in versions: 1080p480p
Fear the Walking Dead S01E03 - The Dog [1080p.WEB-DL.H.264.AC3] [Lektor PL] [POLISH VOICE OVER] (Size: 1.85 GB)
  Fear the Walking Dead S01E03 - The Dog [1080p.WEB-DL.H.264.AC3] [Lektor PL].mkv 1.85 GB

Description

Audio : POLISH VOICE OVER

Fear the Walking Dead S01E03 - Lektor PL

produkcja: USA
gatunek: Horror, Dramat
reżyseria: Adam Davidson
scenariusz: Robert Kirkman, Dave Erickson
zdjęcia: Michael McDonough
czas trwania: ok. 48 min.

Opis:

Spin-off serialu "The Walking Dead", opowiadający o początkach epidemii zombie w Los Angeles.

Obsada:

Kim Dickens - Madison
Cliff Curtis - Travis
Frank Dillane - Nick
Alycia Debnam-Carey - Alicia
Elizabeth Rodriguez - Liza
Mercedes Mason - Ofelia
Rubén Blades - Daniel

Dane naprawcze:

Format : Matroska
Format version : Version 4 / Version 2
File size : 1.85 GiB
Duration : 48mn 28s
Overall bit rate : 5 455 Kbps

Video
ID : 1
Format : AVC
Format/Info : Advanced Video Codec
Format profile : [email protected]
Format settings, CABAC : Yes
Format settings, ReFrames : 4 frames
Codec ID : V_MPEG4/ISO/AVC
Duration : 48mn 28s
Bit rate : 4 962 Kbps
Width : 1 920 pixels
Height : 1 080 pixels
Display aspect ratio : 16:9
Frame rate mode : Constant
Frame rate : 23.976 fps
Color space : YUV
Chroma subsampling : 4:2:0
Bit depth : 8 bits
Scan type : Progressive
Bits/(Pixel*Frame) : 0.100
Stream size : 1.68 GiB (91%)
Color primaries : BT.709
Transfer characteristics : BT.709
Matrix coefficients : BT.709

Audio
ID : 2
Format : AC-3
Format/Info : Audio Coding 3
Mode extension : CM (complete main)
Format settings, Endianness : Big
Codec ID : A_AC3
Duration : 48mn 28s
Bit rate mode : Constant
Bit rate : 384 Kbps
Channel(s) : 2 channels
Channel positions : Front: L R
Sampling rate : 48.0 KHz
Bit depth : 16 bits
Compression mode : Lossy
Stream size : 133 MiB (7%)
Language : Polish

Fear the Walking Dead S01E01 - Pilot [1080p.WEB-DL.H.264.AC3] [Lektor PL]
http://torrenty.org/torrent/1320582
Fear the Walking Dead S01E02 - So Close, Yet So Far [1080p.WEB-DL.H.264.AC3] [Lektor PL]
http://torrenty.org/torrent/1324426

http://i.torrenty.org/timages/1328438.jpg

Related Torrents

torrent name size files age seed leech

Trackers

tracker name
udp://tracker.openbittorrent.com:80/announce
udp://tracker.coppersurfer.tk:6969/announce
udp://tracker.pomf.se:80/announce
udp://glotorrents.pw:6969/announce
udp://eddie4.nl:6969/announce
udp://sugoi.pomf.se:80/announce
udp://tracker.glotorrents.com:6969/announce
udp://torrent.gresille.org:80/announce
udp://tracker.opentrackr.org:1337/announce
udp://poloniumsurfer.tk:6969/announce
µTorrent compatible trackers list

Locations

name
KickassTorrents
Torrent hash: DAA5F67D11C3088718E9626E4DB70A8F3C8718DD

All Comments

audio
0/10
video
0/10
please, leave only comments related to that torrent
Sign In


User Opinions

Report a bug Open chat