Home And Away S29E113 HDTV x264-FiHTV[rartv]

seeders: 15
leechers: 4
updated:
Added by z0n3212.56M in TV
Torrent verified. Downloaded 0 times.

DownloadFast Safe Anonymous
movies, software, shows...
  • View all Home and Away (AU) episodes
  • Episode title: Episode 6463
  • Episode: S29E113
  • Air date: 06 July 2016
  • TVmaze link: Home and Away (AU)
  • Original run: 17 January 1988 — Present
  • Summary:

    "Home and Away" chronicles the lives, loves, happiness, and heart-breaks of the residents of Summer Bay, a small coastal town in New South Wales, Australia.

    Written by DeadShot10146.72K
Available in versions: 1080p720p480pHDTV
Home And Away S29E113 HDTV x264-FiHTV[rartv] (Size: 156.6 MB)
  Home.And.Away.S29E113.HDTV.x264-FiHTV.mkv 156.59 MB
  rarbg.com.txt 34 bytes
  Home.And.Away.S29E113.HDTV.x264-FiHTV.nfo 1.02 KB

Description


https://rarbg.to
Home.And.Away.S29E113.HDTV.x264-FiHTV[rartv]

image
Screens :

image
Mediainfo :

Video
ID : 1
Format : AVC
Format/Info : Advanced Video Codec
Format profile : [email protected]
Format settings, CABAC : Yes
Format settings, ReFrames : 5 frames
Codec ID : V_MPEG4/ISO/AVC
Duration : 21mn 15s
Bit rate : 906 Kbps
Width : 720 pixels
Height : 404 pixels
Display aspect ratio : 16:9
Frame rate mode : Constant
Frame rate : 25.000 fps
Color space : YUV
Chroma subsampling : 4:2:0
Bit depth : 8 bits
Scan type : Progressive
Bits/(Pixel*Frame) : 0.125
Stream size : 138 MiB (88%)
Writing library : x264 core 148 r2705 3f5ed56
Encoding settings : cabac=1 / ref=5 / deblock=1:0:0 / analyse=0x3:0x133 / me=umh / subme=8 / psy=1 / psy_rd=1.00:0.00 / mixed_ref=1 / me_range=16 / chroma_me=1 / trellis=1 / 8x8dct=1 / cqm=0 / deadzone=21,11 / fast_pskip=1 / chroma_qp_offset=-2 / threads=18 / lookahead_threads=3 / sliced_threads=0 / nr=0 / decimate=1 / interlaced=0 / bluray_compat=0 / constrained_intra=0 / bframes=3 / b_pyramid=2 / b_adapt=2 / b_bias=0 / direct=3 / weightb=1 / open_gop=0 / weightp=2 / keyint=250 / keyint_min=25 / scenecut=40 / intra_refresh=0 / rc_lookahead=50 / rc=crf / mbtree=1 / crf=19.0 / qcomp=0.60 / qpmin=0 / qpmax=69 / qpstep=4 / ip_ratio=1.40 / aq=1:1.00
Language : English
Default : Yes
Forced : No
Color range : Limited
Matrix coefficients : BT.709

Audio
ID : 2
Format : AAC
Format/Info : Advanced Audio Codec
Format profile : LC
Codec ID : A_AAC
Duration : 21mn 15s
Bit rate : 122 Kbps
Channel(s) : 2 channels
Channel positions : Front: L R
Sampling rate : 48.0 KHz
Frame rate : 46.875 fps (1024 spf)
Compression mode : Lossy
Delay relative to video : 20ms
Stream size : 18.5 MiB (12%)
Default : Yes
Forced : No

Related Torrents

torrent name size files age seed leech

Sharing Widget


Download torrent
156.6 MB
seeders:0
leechers:0
Home And Away S29E113 HDTV x264-FiHTV[rartv]



To share this torrent use the code below and insert it into comments, status messages, forum posts or your signature.

Torrent: Home And Away S29E113 HDTV x264-FiHTV[rartv]

Trackers

tracker name
udp://tracker.openbittorrent.com:80/announce
udp://tracker.publicbt.com:80/announce
udp://tracker.coppersurfer.tk:6969/announce
udp://9.rarbg.me:2710/announce
udp://p4p.arenabg.com:1337/announce
http://tracker.trackerfix.com/announce
udp://9.rarbg.to:2710/announce
udp://tracker.opentrackr.org:1337/announce
µTorrent compatible trackers list

Locations

name
KickassTorrents
Torrent hash: A57721C431D8855DFC4C20BF3B8C3AAFBA938555

All Comments

audio
0/10
video
0/10
please, leave only comments related to that torrent
Sign In


User Opinions

Report a bug Open chat