Naked and Afraid XL S02E01 Lions at the Gate 720p HDTV x264-DHD[rartv]

seeders: 57
leechers: 8
updated:
Added by z0n3212.56M in TV
Torrent verified. Downloaded 1,263 times.

DownloadFast Safe Anonymous
movies, software, shows...
  • View all Naked and Afraid XL episodes
  • Episode title: Lions at the Gate
  • Episode: S02E01
  • Air date: 10 July 2016
  • IMDb link: 4791250
  • TVmaze link: Naked and Afraid XL
  • Original run: 12 July 2015 — Present
  • Summary:

    Naked and Afraid XL is a spinoff featuring 12 former Naked and Afraid survivalists who are dropped for a potential 40 days and 40 nights.

    Written by Rocky_45121.66K
Available in versions: 720p480pHDTVx265
Naked and Afraid XL S02E01 Lions at the Gate 720p HDTV x264-DHD[rartv] (Size: 1.99 GB)
  Naked.and.Afraid.XL.S02E01.Lions.at.the.Gate.720p.HDTV.x264-DHD.mkv 1.99 GB
  rarbg.com.txt 34 bytes
  naked.and.afraid.xl.s02e01.720p-dhd.nfo 373 bytes

Description


https://rarbg.to
Naked.and.Afraid.XL.S02E01.Lions.at.the.Gate.720p.HDTV.x264-DHD[rartv]

image
Screens :

image
Mediainfo :

Video
ID : 1
Format : AVC
Format/Info : Advanced Video Codec
Format profile : [email protected]
Format settings, CABAC : Yes
Format settings, ReFrames : 5 frames
Codec ID : V_MPEG4/ISO/AVC
Duration : 42mn 31s
Bit rate : 6 307 Kbps
Width : 1 280 pixels
Height : 720 pixels
Display aspect ratio : 16:9
Frame rate mode : Constant
Frame rate : 29.970 (30000/1001) fps
Color space : YUV
Chroma subsampling : 4:2:0
Bit depth : 8 bits
Scan type : Progressive
Bits/(Pixel*Frame) : 0.228
Stream size : 1.87 GiB (94%)
Writing library : x264 core 148 r2705 3f5ed56
Encoding settings : cabac=1 / ref=5 / deblock=1:0:0 / analyse=0x3:0x113 / me=umh / subme=8 / psy=1 / psy_rd=1.00:0.00 / mixed_ref=1 / me_range=16 / chroma_me=1 / trellis=1 / 8x8dct=1 / cqm=0 / deadzone=21,11 / fast_pskip=1 / chroma_qp_offset=-2 / threads=12 / lookahead_threads=2 / sliced_threads=0 / nr=0 / decimate=1 / interlaced=0 / bluray_compat=0 / constrained_intra=0 / bframes=3 / b_pyramid=2 / b_adapt=2 / b_bias=0 / direct=3 / weightb=1 / open_gop=0 / weightp=2 / keyint=250 / keyint_min=25 / scenecut=40 / intra_refresh=0 / rc_lookahead=50 / rc=crf / mbtree=1 / crf=21.0 / qcomp=0.60 / qpmin=0 / qpmax=69 / qpstep=4 / ip_ratio=1.40 / aq=1:1.00
Default : Yes
Forced : No
Color range : Limited
Matrix coefficients : BT.709

Audio
ID : 2
Format : AC-3
Format/Info : Audio Coding 3
Mode extension : CM (complete main)
Format settings, Endianness : Big
Codec ID : A_AC3
Duration : 42mn 31s
Bit rate mode : Constant
Bit rate : 384 Kbps
Channel(s) : 6 channels
Channel positions : Front: L C R, Side: L R, LFE
Sampling rate : 48.0 KHz
Frame rate : 31.250 fps (1536 spf)
Compression mode : Lossy
Stream size : 117 MiB (6%)
Default : Yes
Forced : No

Text
ID : 3
Format : UTF-8
Codec ID : S_TEXT/UTF8
Codec ID/Info : UTF-8 Plain Text
Duration : 42mn 30s
Bit rate : 97 bps
Count of elements : 924
Stream size : 30.5 KiB (0%)
Language : English
Default : No
Forced : No

Sharing Widget


Download torrent
1.99 GB
seeders:59
leechers:8
Naked and Afraid XL S02E01 Lions at the Gate 720p HDTV x264-DHD[rartv]



To share this torrent use the code below and insert it into comments, status messages, forum posts or your signature.

Torrent: Naked and Afraid XL S02E01 L...te 720p HDTV x264-DHD[rartv]

Trackers

tracker name
udp://tracker.openbittorrent.com:80/announce
udp://tracker.publicbt.com:80/announce
udp://tracker.coppersurfer.tk:6969/announce
udp://9.rarbg.me:2710/announce
udp://p4p.arenabg.com:1337/announce
http://tracker.trackerfix.com/announce
udp://9.rarbg.to:2710/announce
udp://tracker.opentrackr.org:1337/announce
µTorrent compatible trackers list

Locations

name
KickassTorrents
Torrent hash: 6B7E006F47FB4C26B1AF42700BEFC875FF79F2FC

All Comments

audio
0/10
video
0/10
please, leave only comments related to that torrent
Sign In

Thank you so much for uploading in high quality!

User Opinions

Report a bug Open chat