Pretty Little Liars S07E04 HDTV x264-LOL[rartv]

seeders: 2606
leechers: 1354
updated:
Added by z0n3212.56M in TV
Torrent verified. Downloaded 3,706 times.

DownloadFast Safe Anonymous
movies, software, shows...
  • View all Pretty Little Liars episodes
  • Episode title: Hit and Run, Run, Run
  • Episode: S07E04
  • Air date: 12 July 2016
  • IMDb link: 1578873
  • TVmaze link: Pretty Little Liars
  • Original run: 08 June 2010 — Present
  • Summary:

    Four friends band together against an anonymous foe who threatens to reveal their darkest secrets, while unraveling the mystery of the murder of their best friend.

    Written by Hobo.hxr2971
Available in versions: 1080p720p480pHDTVWEBRipx264x265
Pretty Little Liars S07E04 HDTV x264-LOL[rartv] (Size: 211.13 MB)
  rarbg.com.txt 34 bytes
  pretty.little.liars.704.hdtv-lol.mkv 211.12 MB
  pretty.little.liars.704.hdtv-lol.nfo 4.26 KB

Description


https://rarbg.to
Pretty.Little.Liars.S07E04.HDTV.x264-LOL[rartv]

image
Screens :

image
Mediainfo :

Video
ID : 1
Format : AVC
Format/Info : Advanced Video Codec
Format profile : [email protected]
Format settings, CABAC : Yes
Format settings, ReFrames : 5 frames
Codec ID : V_MPEG4/ISO/AVC
Duration : 42mn 18s
Bit rate : 573 Kbps
Width : 720 pixels
Height : 404 pixels
Display aspect ratio : 16:9
Frame rate mode : Constant
Frame rate : 23.976 (24000/1001) fps
Color space : YUV
Chroma subsampling : 4:2:0
Bit depth : 8 bits
Scan type : Progressive
Bits/(Pixel*Frame) : 0.082
Stream size : 173 MiB (82%)
Writing library : x264 core 148 r2705 3f5ed56
Encoding settings : cabac=1 / ref=5 / deblock=1:1:1 / analyse=0x3:0x133 / me=umh / subme=9 / psy=1 / psy_rd=1.00:0.00 / mixed_ref=1 / me_range=16 / chroma_me=1 / trellis=2 / 8x8dct=1 / cqm=0 / deadzone=21,11 / fast_pskip=1 / chroma_qp_offset=-2 / threads=13 / lookahead_threads=1 / sliced_threads=0 / nr=0 / decimate=1 / interlaced=0 / bluray_compat=0 / constrained_intra=0 / bframes=3 / b_pyramid=2 / b_adapt=2 / b_bias=0 / direct=3 / weightb=1 / open_gop=0 / weightp=2 / keyint=250 / keyint_min=23 / scenecut=40 / intra_refresh=0 / rc_lookahead=60 / rc=crf / mbtree=1 / crf=20.0 / qcomp=0.60 / qpmin=0 / qpmax=69 / qpstep=4 / ip_ratio=1.40 / aq=1:1.00
Language : English
Default : Yes
Forced : No
Color range : Limited
Matrix coefficients : BT.709

Audio
ID : 2
Format : AAC
Format/Info : Advanced Audio Codec
Format profile : LC
Codec ID : A_AAC
Duration : 42mn 17s
Bit rate : 123 Kbps
Channel(s) : 2 channels
Channel positions : Front: L R
Sampling rate : 48.0 KHz
Frame rate : 46.875 fps (1024 spf)
Compression mode : Lossy
Delay relative to video : 9ms
Stream size : 37.1 MiB (18%)
Default : Yes
Forced : No

Related Torrents

torrent name size files age seed leech

Sharing Widget


Download torrent
211.13 MB
seeders:1321
leechers:704
Pretty Little Liars S07E04 HDTV x264-LOL[rartv]



To share this torrent use the code below and insert it into comments, status messages, forum posts or your signature.

Torrent: Pretty Little Liars S07E04 HDTV x264-LOL[rartv]

Trackers

tracker name
udp://tracker.openbittorrent.com:80/announce
udp://tracker.publicbt.com:80/announce
udp://tracker.coppersurfer.tk:6969/announce
udp://9.rarbg.me:2710/announce
udp://p4p.arenabg.com:1337/announce
http://tracker.trackerfix.com/announce
udp://9.rarbg.to:2710/announce
udp://tracker.opentrackr.org:1337/announce
µTorrent compatible trackers list

Locations

name
KickassTorrents
Torrent hash: F75D3F820BFD1E1CA4CFA39E0027B967E33DEA1F

All Comments

audio
10/10
video
10/10
please, leave only comments related to that torrent
Sign In

audio: 10video: 10
[b
Thank you!!!![b
[/b
[/b
audio: 10video: 10
Thank you thumb_up

User Opinions

Angers4932.47K, NoNeinNyet6255, obk885289, ChetanM3668, titiu1797, Martell071649, ashfaaqb1007, shiranai646, totalynut459, ikusioR198 ... And 15 more
Report a bug Open chat