Top Gear US S08E10 Cuba 720p HDTV x264-DHD[rartv]

seeders: 88
leechers: 8
updated:
Added by z0n3212.56M in TV
Torrent verified. Downloaded 5,989 times.

DownloadFast Safe Anonymous
movies, software, shows...
  • View all Top Gear (US) episodes
  • Episode: S08E10
  • TVmaze link: Top Gear (US)
  • Original run: 14 May 2010 — Present
  • Summary:

    The hosts Adam Ferrara, Rutledge Wood and Tanner Foust talk about what ever you need to know about cars and in every episode they go through a list of challenges to know who chose the best car that fits there challenges.

    Written by Thhaque414.88K
Available in versions: 720p480pHDTVx264x265
Top Gear US S08E10 Cuba 720p HDTV x264-DHD[rartv] (Size: 1.12 GB)
  rarbg.com.txt 34 bytes
  Top.Gear.US.S08E10.Cuba.720p.HDTV.x264-DHD.mkv 1.12 GB
  top.gear.us.s08e10.720p-dhd.nfo 352 bytes

Description


https://rarbg.to
Top.Gear.US.S08E10.Cuba.720p.HDTV.x264-DHD[rartv]

image
Screens :

image
Mediainfo :

Video
ID : 1
Format : AVC
Format/Info : Advanced Video Codec
Format profile : [email protected]
Format settings, CABAC : Yes
Format settings, ReFrames : 5 frames
Codec ID : V_MPEG4/ISO/AVC
Duration : 41mn 58s
Bit rate : 3 443 Kbps
Width : 1 280 pixels
Height : 720 pixels
Display aspect ratio : 16:9
Frame rate mode : Constant
Frame rate : 23.976 (24000/1001) fps
Color space : YUV
Chroma subsampling : 4:2:0
Bit depth : 8 bits
Scan type : Progressive
Bits/(Pixel*Frame) : 0.156
Stream size : 1.01 GiB (90%)
Writing library : x264 core 148 r2694 3b70645
Encoding settings : cabac=1 / ref=5 / deblock=1:0:0 / analyse=0x3:0x113 / me=umh / subme=8 / psy=1 / psy_rd=1.00:0.00 / mixed_ref=1 / me_range=16 / chroma_me=1 / trellis=1 / 8x8dct=1 / cqm=0 / deadzone=21,11 / fast_pskip=1 / chroma_qp_offset=-2 / threads=12 / lookahead_threads=2 / sliced_threads=0 / nr=0 / decimate=1 / interlaced=0 / bluray_compat=0 / constrained_intra=0 / bframes=3 / b_pyramid=2 / b_adapt=2 / b_bias=0 / direct=3 / weightb=1 / open_gop=0 / weightp=2 / keyint=250 / keyint_min=23 / scenecut=40 / intra_refresh=0 / rc_lookahead=50 / rc=crf / mbtree=1 / crf=21.0 / qcomp=0.60 / qpmin=0 / qpmax=69 / qpstep=4 / ip_ratio=1.40 / aq=1:1.00
Default : Yes
Forced : No
Color range : Limited
Matrix coefficients : BT.709

Audio
ID : 2
Format : AC-3
Format/Info : Audio Coding 3
Mode extension : CM (complete main)
Format settings, Endianness : Big
Codec ID : A_AC3
Duration : 41mn 58s
Bit rate mode : Constant
Bit rate : 384 Kbps
Channel(s) : 6 channels
Channel positions : Front: L C R, Side: L R, LFE
Sampling rate : 48.0 KHz
Frame rate : 31.250 fps (1536 spf)
Compression mode : Lossy
Stream size : 115 MiB (10%)
Default : Yes
Forced : No

Text
ID : 3
Format : UTF-8
Codec ID : S_TEXT/UTF8
Codec ID/Info : UTF-8 Plain Text
Duration : 41mn 56s
Bit rate : 126 bps
Count of elements : 1140
Stream size : 38.8 KiB (0%)
Language : English
Default : No
Forced : No

Related Torrents

torrent name size files age seed leech

Sharing Widget


Download torrent
1.12 GB
seeders:97
leechers:7
Top Gear US S08E10 Cuba 720p HDTV x264-DHD[rartv]



To share this torrent use the code below and insert it into comments, status messages, forum posts or your signature.

Torrent: Top Gear US S08E10 Cuba 720p HDTV x264-DHD[rartv]

Trackers

tracker name
udp://tracker.openbittorrent.com:80/announce
udp://tracker.publicbt.com:80/announce
udp://tracker.coppersurfer.tk:6969/announce
udp://9.rarbg.me:2710/announce
udp://p4p.arenabg.com:1337/announce
http://tracker.trackerfix.com/announce
udp://9.rarbg.to:2710/announce
udp://tracker.opentrackr.org:1337/announce
µTorrent compatible trackers list

Locations

name
KickassTorrents
Torrent hash: 4E4F9C5623AB1E812893F426706BB45BB1ED0213

All Comments

audio
9/10
video
9/10
please, leave only comments related to that torrent
Sign In

audio: 10video: 9
Thanks!
audio: 10video: 10
Thanks
audio: 10video: 10
Excellent quality. This show just got better and better, too bad it's done with. I'd much rather watch this than TGUK
audio: 10video: 10
good
audio: 8video: 7
1080p plz
Apparently this is the last one on History, hope some other channel picks it up. Thanks for the upload!
Because my little pc in my bedroom can't play x265 without lagging... :)


User Opinions

sharunseth13.24K, planet14894, Palmier3990, DISTUBED2663, Kopimi2391, rurocking2347, vick131634, azrael141134, DJ_SpaRky953, OSAKNUC858 ... And 33 more
Report a bug Open chat