Workaholics S05 Season 5 720p 5.1Ch BluRay ReEnc-DeeJayAhmed

seeders: 57
leechers: 9
updated:
Added by DeeJayStark89.47K in TV
Torrent verified. Downloaded 1,373 times.

DownloadFast Safe Anonymous
movies, software, shows...
  • View all Workaholics episodes
  • Season: Full 5th season
  • IMDb link: 1610527
  • TVmaze link: Workaholics
  • Original run: 06 April 2011 — Present
  • Summary:

    A single-camera comedy featuring three friends who work together as telemarketers from 9 to 5 and live together from 5 to 9.

    Written by K.0.Z58.98K
Available in versions: 1080p720p480pHDTVWEBRipx265
Workaholics S05 Season 5 720p 5.1Ch BluRay ReEnc-DeeJayAhmed (Size: 2.12 GB)
  DeeJayAhmed Facebook Page.url 70 bytes
  DeeJayAhmed ReEncodes.txt 809 bytes
  DeeJayAhmed Website.url 53 bytes
  Workaholics.S05E01.720p.5.1Ch.BluRay.ReEnc-DeeJayAhmed.mkv 167.2 MB
  Workaholics.S05E01.720p.5.1Ch.BluRay.ReEnc-DeeJayAhmed.srt 39.29 KB
  Workaholics.S05E02.720p.5.1Ch.BluRay.ReEnc-DeeJayAhmed.mkv 166.69 MB
  Workaholics.S05E02.720p.5.1Ch.BluRay.ReEnc-DeeJayAhmed.srt 39.69 KB
  Workaholics.S05E03.720p.5.1Ch.BluRay.ReEnc-DeeJayAhmed.mkv 167.81 MB
  Workaholics.S05E03.720p.5.1Ch.BluRay.ReEnc-DeeJayAhmed.srt 37.31 KB
  Workaholics.S05E04.720p.5.1Ch.BluRay.ReEnc-DeeJayAhmed.mkv 167.36 MB
  Workaholics.S05E04.720p.5.1Ch.BluRay.ReEnc-DeeJayAhmed.srt 41.43 KB
  Workaholics.S05E05.720p.5.1Ch.BluRay.ReEnc-DeeJayAhmed.mkv 165.06 MB
  Workaholics.S05E05.720p.5.1Ch.BluRay.ReEnc-DeeJayAhmed.srt 39.24 KB
  Workaholics.S05E06.720p.5.1Ch.BluRay.ReEnc-DeeJayAhmed.mkv 166.05 MB
  Workaholics.S05E06.720p.5.1Ch.BluRay.ReEnc-DeeJayAhmed.srt 36.24 KB
  Workaholics.S05E07.720p.5.1Ch.BluRay.ReEnc-DeeJayAhmed.mkv 168 MB
  Workaholics.S05E07.720p.5.1Ch.BluRay.ReEnc-DeeJayAhmed.srt 39.69 KB
  Workaholics.S05E08.720p.5.1Ch.BluRay.ReEnc-DeeJayAhmed.mkv 166.2 MB
  Workaholics.S05E08.720p.5.1Ch.BluRay.ReEnc-DeeJayAhmed.srt 37.6 KB
  Workaholics.S05E09.720p.5.1Ch.BluRay.ReEnc-DeeJayAhmed.mkv 166.03 MB
  Workaholics.S05E09.720p.5.1Ch.BluRay.ReEnc-DeeJayAhmed.srt 40.52 KB
  Workaholics.S05E10.720p.5.1Ch.BluRay.ReEnc-DeeJayAhmed.mkv 168.35 MB
  Workaholics.S05E10.720p.5.1Ch.BluRay.ReEnc-DeeJayAhmed.srt 38.61 KB
  Workaholics.S05E11.720p.5.1Ch.BluRay.ReEnc-DeeJayAhmed.mkv 165.54 MB
  Workaholics.S05E11.720p.5.1Ch.BluRay.ReEnc-DeeJayAhmed.srt 38.44 KB
  Workaholics.S05E12.720p.5.1Ch.BluRay.ReEnc-DeeJayAhmed.mkv 167.75 MB
  Workaholics.S05E12.720p.5.1Ch.BluRay.ReEnc-DeeJayAhmed.srt 39.34 KB
  Workaholics.S05E13.720p.5.1Ch.BluRay.ReEnc-DeeJayAhmed.mkv 165.87 MB
  Workaholics.S05E13.720p.5.1Ch.BluRay.ReEnc-DeeJayAhmed.srt 40.43 KB

Description


DeeJayAhmed
Keep Seeding!!=))
Do Comment On The A/V Quality Considering The Size Of The File..!


Video
ID : 1
Format : AVC
Format/Info : Advanced Video Codec
Format profile : [email protected]
Format settings, CABAC : Yes
Format settings, ReFrames : 8 frames
Codec ID : V_MPEG4/ISO/AVC
Duration : 21mn 18s
Bit rate : 948 Kbps
Width : 1 280 pixels
Height : 720 pixels
Display aspect ratio : 16:9
Frame rate mode : Constant
Frame rate : 23.976 (24000/1001) fps
Color space : YUV
Chroma subsampling : 4:2:0
Bit depth : 8 bits
Scan type : Progressive
Bits/(Pixel*Frame) : 0.043
Stream size : 144 MiB (86%)
Default : Yes
Forced : No

Audio
ID : 2
Format : AAC
Format/Info : Advanced Audio Codec
Format profile : HE-AAC / LC
Codec ID : A_AAC
Duration : 21mn 18s
Bit rate : 147 Kbps
Channel(s) : 6 channels
Channel positions : Front: L C R, Side: L R, LFE
Sampling rate : 48.0 KHz / 24.0 KHz
Frame rate : 23.438 fps (1024 spf)
Compression mode : Lossy
Delay relative to video : 31ms
Stream size : 22.4 MiB (13%)
Language : English
Default : Yes
Forced : No


Related Torrents

torrent name size files age seed leech

Sharing Widget


Download torrent
2.12 GB
seeders:42
leechers:16
Workaholics S05 Season 5 720p 5.1Ch BluRay ReEnc-DeeJayAhmed



To share this torrent use the code below and insert it into comments, status messages, forum posts or your signature.

Torrent: Workaholics S05 Season 5 720p 5.1Ch BluRay ReEnc-DeeJayAhmed

Trackers

tracker name
udp://tracker.openbittorrent.com:80/announce
udp://tracker.coppersurfer.tk:6969/announce
udp://p4p.arenabg.com:1337/announce
udp://tracker.blackunicorn.xyz:6969/announce
udp://tracker.opentrackr.org:1337/announce
udp://opentrackr.org:1337/announce
http://tracker.dutchtracking.com/announce
udp://tracker.internetwarriors.net:1337/announce
udp://tracker.piratepublic.com:1337/announce
udp://tracker.sktorrent.net:6969/announce
µTorrent compatible trackers list

Locations

name
KickassTorrents
Torrent hash: 573BD7688DDF19E9390A395931AF606A1FF7248B

All Comments

audio
9/10
video
9/10
please, leave only comments related to that torrent
Sign In

audio: 9video: 9
Thanks so much!
please upload the season 6 :D:D:D

User Opinions

AndrewIII13.52K, mattmaing10.18K, Loganlives6749, R.....5386, Danz2073994, aswinrm3345, DeadLove222711, bradsmithsite2068, MaDDHaTTeRR1545, silentcliche51 ... And 20 more
Report a bug Open chat