Workaholics S06E02 720p HDTV x264-KILLERS[rartv]

seeders: 20
leechers: 3
updated:
Added by z0n3212.57M in TV
Torrent verified. Downloaded 6,742 times.

DownloadFast Safe Anonymous
movies, software, shows...
  • View all Workaholics episodes
  • Episode title: Meth Head Actor
  • Episode: S06E02
  • Air date: 21 January 2016
  • IMDb link: 1610527
  • TVmaze link: Workaholics
  • Original run: 06 April 2011 — Present
  • Summary:

    A single-camera comedy featuring three friends who work together as telemarketers from 9 to 5 and live together from 5 to 9.

    Written by K.0.Z58.98K
Available in versions: 1080p720p480pHDTVWEBRipx265
Workaholics S06E02 720p HDTV x264-KILLERS[rartv] (Size: 510.91 MB)
  rarbg.com.txt 34 bytes
  Workaholics.S06E02.720p.HDTV.x264-KILLERS.mkv 510.9 MB
  Workaholics.S06E02.720p.HDTV.x264-KILLERS.nfo 10.62 KB

Description


https://rarbg.to
Workaholics.S06E02.720p.HDTV.x264-KILLERS[rartv]

image
Screens :

image
Mediainfo :

Video
ID : 1
Format : AVC
Format/Info : Advanced Video Codec
Format profile : [email protected]
Format settings, CABAC : Yes
Format settings, ReFrames : 5 frames
Codec ID : V_MPEG4/ISO/AVC
Duration : 21mn 0s
Bit rate : 2 947 Kbps
Width : 1 280 pixels
Height : 720 pixels
Display aspect ratio : 16:9
Frame rate mode : Constant
Frame rate : 23.976 (24000/1001) fps
Color space : YUV
Chroma subsampling : 4:2:0
Bit depth : 8 bits
Scan type : Progressive
Bits/(Pixel*Frame) : 0.133
Stream size : 443 MiB (87%)
Writing library : x264 core 148 r2665 a01e339
Encoding settings : cabac=1 / ref=5 / deblock=1:0:0 / analyse=0x3:0x113 / me=umh / subme=8 / psy=1 / psy_rd=1.00:0.00 / mixed_ref=1 / me_range=16 / chroma_me=1 / trellis=1 / 8x8dct=1 / cqm=0 / deadzone=21,11 / fast_pskip=1 / chroma_qp_offset=-2 / threads=22 / lookahead_threads=3 / sliced_threads=0 / nr=0 / decimate=1 / interlaced=0 / bluray_compat=0 / constrained_intra=0 / bframes=3 / b_pyramid=2 / b_adapt=2 / b_bias=0 / direct=3 / weightb=1 / open_gop=0 / weightp=2 / keyint=250 / keyint_min=23 / scenecut=40 / intra_refresh=0 / rc_lookahead=50 / rc=crf / mbtree=1 / crf=18.0 / qcomp=0.60 / qpmin=0 / qpmax=69 / qpstep=4 / ip_ratio=1.40 / aq=1:1.00
Language : English
Default : Yes
Forced : No
Color range : Limited
Matrix coefficients : BT.709

Audio
ID : 2
Format : AC-3
Format/Info : Audio Coding 3
Mode extension : CM (complete main)
Format settings, Endianness : Big
Codec ID : A_AC3
Duration : 21mn 0s
Bit rate mode : Constant
Bit rate : 384 Kbps
Channel(s) : 6 channels
Channel positions : Front: L C R, Side: L R, LFE
Sampling rate : 48.0 KHz
Frame rate : 31.250 fps (1536 spf)
Compression mode : Lossy
Stream size : 57.7 MiB (11%)
Default : Yes
Forced : No

Related Torrents

torrent name size files age seed leech

Sharing Widget


Download torrent
510.91 MB
seeders:20
leechers:3
Workaholics S06E02 720p HDTV x264-KILLERS[rartv]



To share this torrent use the code below and insert it into comments, status messages, forum posts or your signature.

Torrent: Workaholics S06E02 720p HDTV x264-KILLERS[rartv]

Trackers

tracker name
udp://tracker.openbittorrent.com:80/announce
udp://tracker.publicbt.com:80/announce
udp://tracker.coppersurfer.tk:6969/announce
udp://9.rarbg.me:2710/announce
udp://glotorrents.pw:6969/announce
http://tracker.trackerfix.com/announce
udp://9.rarbg.to:2710/announce
udp://tracker.opentrackr.org:1337/announce
µTorrent compatible trackers list

Locations

name
KickassTorrents
Torrent hash: CCEAA347806A100D03E29CACCB0BE61FA05DA5F5

All Comments

audio
9/10
video
9/10
please, leave only comments related to that torrent
Sign In

audio: 10video: 10
Good show.
audio: 9video: 9
9/9 THANKS FOR SHARING (:
Suddenly stop at about 15 mins.

can you post a non-mkv version please?
audio: 10video: 10
Thanks boss, been hawking this.

User Opinions

Bremanesk9511, wizworx9236, Tommy Jay6917, CheryMoko6511, makingwavs4525, CypryanV3929, SFingers2339, ikiK_Cro1193, dfa1987415, Maguh229 ... And 116 more
maccloud172
Report a bug Open chat