X-Men Apocalypse 2016 HDRip KORSUB XviD MP3-STUTTERSHIT

seeders: 459
leechers: 452
updated:
Added by z0n3212.59M in Movies
Torrent verified. Downloaded 1,824 times.

DownloadFast Safe Anonymous
movies, software, shows...
Summary:

Since the dawn of civilization, he was worshipped as a god. Apocalypse, the first and most powerful mutant from Marvel's X-Men universe, amassed the powers of many other mutants, becoming immortal and invincible. Upon awakening after thousands of years, he is disillusioned with the world as he finds it and recruits a team of powerful mutants, including a disheartened Magneto (Michael Fassbender), to cleanse mankind and create a new world order, over which he will reign. As the fate of the Earth hangs in the balance, Raven (Jennifer Lawrence) with the help of Professor X (James McAvoy) must lead a team of young X-Men to stop their greatest nemesis and save mankind from complete destruction.

Written by Rocky_45122.52K Last edited by zoone, 1 month ago
X-Men Apocalypse 2016 HDRip KORSUB XviD MP3-STUTTERSHIT (Size: 1.81 GB)
  rarbg.com.txt 34 bytes
  X-Men.Apocalypse.2016.HDRip.KORSUB.XviD.MP3-STUTTERSHIT.avi 1.81 GB
  X-Men.Apocalypse.2016.HDRip.KORSUB.XviD.MP3-STUTTERSHIT.nfo 3.04 KB

Description



https://rarbg.to/


image
image
image
image
image
image



[mediainfo]
Video
ID : 0
Format : MPEG-4 Visual
Format profile : [email protected]
Format settings, BVOP : No
Format settings, QPel : No
Format settings, GMC : No warppoints
Format settings, Matrix : Default (H.263)
Codec ID : XVID
Codec ID/Hint : XviD
Duration : 2h 23mn
Bit rate : 1 598 Kbps
Width : 720 pixels
Height : 400 pixels
Display aspect ratio : 16:9
Frame rate : 29.970 fps
Color space : YUV
Chroma subsampling : 4:2:0
Bit depth : 8 bits
Scan type : Progressive
Compression mode : Lossy
Bits/(Pixel*Frame) : 0.185
Stream size : 1.60 GiB (89%)
Writing library : Lavc57.16.101

Audio
ID : 1
Format : MPEG Audio
Format version : Version 1
Format profile : Layer 3
Mode : Joint stereo
Codec ID : 55
Codec ID/Hint : MP3
Duration : 2h 23mn
Bit rate mode : Constant
Bit rate : 192 Kbps
Channel(s) : 2 channels
Sampling rate : 44.1 KHz
Compression mode : Lossy
Stream size : 197 MiB (11%)
Alignment : Aligned on interleaves
Interleave, duration : 26 ms (0.78 video frame)
Interleave, preload duration : 522 ms
Writing library : LAME3.99.5



[/mediainfo]

Related Torrents

torrent name size files age seed leech

Sharing Widget


Download torrent
1.81 GB
seeders:449
leechers:408
X-Men Apocalypse 2016 HDRip KORSUB XviD MP3-STUTTERSHIT



To share this torrent use the code below and insert it into comments, status messages, forum posts or your signature.

Torrent: X-Men Apocalypse 2016 HDRip KORSUB XviD MP3-STUTTERSHIT

Trackers

tracker name
udp://tracker.openbittorrent.com:80/announce
udp://tracker.coppersurfer.tk:6969/announce
udp://9.rarbg.me:2710/announce
udp://p4p.arenabg.com:1337/announce
udp://tracker.opentrackr.org:1337/announce
ĀµTorrent compatible trackers list

Locations

name
KickassTorrents
Torrent hash: E673B0A878C811648EFF117212AD16A8FA5A0F6E

All Comments

audio
6/10
video
5/10
please, leave only comments related to that torrent
Sign In

audio: 6video: 5
I am honestly very forgiving on AV because I grew up in the days of rabbit ears and scrambled pr0n.

Yet

Audio is set way too loud.

Video is terrible for a nearly 2 gb file.

Hardcoded subs, also no soft subs which are needed especially in the intro

Honestly not worth it. Better than a telesync, but nothing about this is HD and is below standard (dvd) level. Only got 13 min in before deciding to wait for a better quality copy

Not a complaint about uploader as the problems seem to be with the source KORSUB

ALL of which is merely my opinion. Take it for what it is worth of course.

Last edited by Viroodiem, 45 min. ago


User Opinions

Report a bug Open chat