Amar Akbar Anthony (2018) 720p UNCUT HDRip H.264 E-Subs Dual Audio [Hindi DD2.0+Telugu DD5.1] Exclusive BabaHD

seeders: 81
leechers: 56
updated:

Download Fast Safe Anonymous
movies, software, shows...
Summary:

Amar Akbar Anthony is an upcoming Telugu film co-written and directed by Srinu Vaitla which features Ravi Teja and Ileana D'Cruz in the lead roles.

Files

  • Amar Akbar Anthony (2018) 720p UNCUT HDRip x264 E-Subs [Hindi DD2.0+Telugu] BabaHD.mkv (1.5 GB)

Description

Amar Akbar Anthony (2018) 720p UNCUT HDRip H.264 E-Subs Dual Audio [Hindi DD2.0+Telugu DD5.1] Exclusive BabaHD

Exclusive By www.BabaHD.com





Video
ID : 1
Format : AVC
Format/Info : Advanced Video Codec
Format profile : [email protected]
Format settings : CABAC / 4 Ref Frames
Format settings, CABAC : Yes
Format settings, RefFrames : 4 frames
Codec ID : V_MPEG4/ISO/AVC
Duration : 2 h 27 min
Bit rate : 1 554 kb/s
Width : 1 280 pixels
Height : 544 pixels
Display aspect ratio : 2.35:1
Frame rate mode : Constant
Frame rate : 24.000 FPS
Color space : YUV
Chroma subsampling : 4:2:0
Bit depth : 8 bits
Scan type : Progressive
Bits/(Pixel*Frame) : 0.093
Stream size : 1.60 GiB (82%)
Writing library : x264 core
Default : Yes
Forced : No

Audio #1
ID : 2
Format : AC-3
Format/Info : Audio Coding 3
Codec ID : A_AC3
Duration : 2 h 18 min
Bit rate mode : Constant
Bit rate : 192 kb/s
Channel(s) : 2 channels
Channel positions : Front: L R
Sampling rate : 48.0 kHz
Frame rate : 31.250 FPS (1536 SPF)
Bit depth : 16 bits
Compression mode : Lossy
Stream size : 191 MiB (10%)
Language : Hindi
Service kind : Complete Main
Default : Yes
Forced : Yes

Audio #2
ID : 3
Format : AC-3
Format/Info : Audio Coding 3
Codec ID : A_AC3
Duration : 2 h 27 min
Bit rate mode : Constant
Bit rate : 160 kb/s
Channel(s) : 6 channels
Channel positions : Front: L C R, Side: L R, LFE
Sampling rate : 48.0 kHz
Frame rate : 31.250 FPS (1536 SPF)
Bit depth : 16 bits
Compression mode : Lossy
Stream size : 169 MiB (8%)
Language : Telugu
Service kind : Complete Main
Default : No
Forced : No


Text
ID : 4
Format : UTF-8
Codec ID : S_TEXT/UTF8
Codec ID/Info : UTF-8 Plain Text



SCREENS















---------------------------------
https://extraimage.net/image/EVXU


Related Torrents

torrent name size uploader age seed leech
721.3 MB rock3 1
year
814 962
1.4 GB rock3 1
year
646 726
421.4 MB rock3 1
year
382 365
1.5 GB RockerS 1
year
118 206
2.5 GB anily 1
year
52 10


Download torrent
1.5 GB
seeders:81
leechers:56
Amar Akbar Anthony (2018) 720p UNCUT HDRip H.264 E-Subs Dual Audio [Hindi DD2.0+Telugu DD5.1] Exclusive BabaHD


Trackers

tracker name
udp://tracker.coppersurfer.tk:6969/announce
udp://tracker.ilibr.org:6969/announce
udp://tracker.ilibr.org:80/announce
udp://tracker.opentrackr.org:1337/announce
udp://zer0day.to:1337/announce
udp://tracker.zer0day.to:1337/announce
udp://p4p.arenabg.com:1337/announce
udp://p4p.arenabg.ch:1337/announce
udp://tracker.leechers-paradise.org:6969/announce
udp://explodie.org:6969/announce
udp://9.rarbg.to:2710/announce
udp://eddie4.nl:6969/announce
udp://9.rarbg.to:2710/announce
udp://tracker.opentrackr.org:1337/announce
http://tracker1.itzmx.com:8080/announce
http://tracker3.itzmx.com:6961/announce
udp://tracker.tiny-vps.com:6969/announce
udp://thetracker.org:80/announce
udp://open.demonii.si:1337/announce
udp://bt.firebit.co.uk:6969/announce
udp://tracker.leechers-paradise.org:6969/announce
udp://tracker.internetwarriors.net:1337/announce
udp://9.rarbg.to:2710/announce
udp://9.rarbg.me:2780/announce
udp://9.rarbg.com:2770/announce
udp://9.rarbg.me:2780/announce
udp://open.stealth.si:80/announce
udp://tracker.zer0day.to:1337/announce
udp://tracker.leechers-paradise.org:6969/announce
udp://coppersurfer.tk:6969/announce
µTorrent compatible trackers list

Download torrent
1.5 GB
seeders:81
leechers:56
Amar Akbar Anthony (2018) 720p UNCUT HDRip H.264 E-Subs Dual Audio [Hindi DD2.0+Telugu DD5.1] Exclusive BabaHD


Torrent hash: C91CBB1C21D9305431CC221124F43743AC469BBD