Bad Santa (2003) Unrated (1080p x265 HEVC 10bit BluRay AC3 5.1) [Prof]

seeders: 29
leechers: 1
updated:
Added by Prof in Movies > HEVC/x265

Download Fast Safe Anonymous
movies, software, shows...
Summary:

A miserable conman and his partner pose as Santa and his Little Helper to rob department stores on Christmas Eve. But they run into problems when the conman befriends a troubled kid, and the security boss discovers the plot.

Files

  • Bad Santa (2003) Unrated.mkv (7.5 GB)

Description







General
Format : Matroska
Format version : Version 4
File size : 7.52 GiB
Duration : 1 h 39 min
Overall bit rate : 10.8 Mb/s
Encoded date : UTC 2021-06-24 12:20:20
Writing application : mkvmerge v53.0.0 ('Fool's Gold') 64-bit
Writing library : libebml v1.4.1 + libmatroska v1.6.2

Video
ID : 1
Format : HEVC
Format/Info : High Efficiency Video Coding
Format profile : Main [email protected]@Main
Codec ID : V_MPEGH/ISO/HEVC
Duration : 1 h 39 min
Bit rate : 9 901 kb/s
Width : 1 920 pixels
Height : 1 040 pixels
Display aspect ratio : 1.85:1
Frame rate mode : Constant
Frame rate : 23.976 (24000/1001) FPS
Color space : YUV
Chroma subsampling : 4:2:0
Bit depth : 10 bits
Bits/(Pixel*Frame) : 0.207
Stream size : 6.89 GiB (92%)
Writing library : x265 3.5_RC1+2+23-bd060601e:[Windows][GCC 10.2.0][64 bit] 10bit
Encoding settings : cpuid=1111039 / frame-threads=4 / numa-pools=24 / wpp / no-pmode / no-pme / no-psnr / no-ssim / log-level=2 / input-csp=1 / input-res=1920x1040 / interlace=0 / total-frames=143256 / level-idc=0 / high-tier=1 / uhd-bd=0 / ref=5 / no-allow-non-conformance / no-repeat-headers / annexb / no-aud / no-hrd / info / hash=0 / no-temporal-layers / open-gop / min-keyint=23 / keyint=250 / gop-lookahead=0 / bframes=8 / b-adapt=2 / b-pyramid / bframe-bias=0 / rc-lookahead=40 / lookahead-slices=1 / scenecut=40 / hist-scenecut=0 / radl=0 / no-splice / no-intra-refresh / ctu=64 / min-cu-size=8 / rect / amp / max-tu-size=32 / tu-inter-depth=3 / tu-intra-depth=3 / limit-tu=4 / rdoq-level=2 / dynamic-rd=0.00 / no-ssim-rd / signhide / no-tskip / nr-intra=0 / nr-inter=0 / no-constrained-intra / strong-intra-smoothing / max-merge=4 / limit-refs=1 / limit-modes / me=3 / subme=4 / merange=57 / temporal-mvp / no-frame-dup / no-hme / weightp / weightb / no-analyze-src-pics / deblock=0:0 / sao / no-sao-non-deblock / rd=6 / selective-sao=4 / no-early-skip / rskip / no-fast-intra / no-tskip-fast / no-cu-lossless / b-intra / no-splitrd-skip / rdpenalty=0 / psy-rd=2.00 / psy-rdoq=1.00 / no-rd-refine / no-lossless / cbqpoffs=0 / crqpoffs=0 / rc=crf / crf=19.0 / qcomp=0.60 / qpstep=4 / stats-write=0 / stats-read=0 / ipratio=1.40 / pbratio=1.30 / aq-mode=3 / aq-strength=1.00 / cutree / zone-count=0 / no-strict-cbr / qg-size=32 / no-rc-grain / qpmax=69 / qpmin=0 / no-const-vbv / sar=0 / overscan=0 / videoformat=5 / range=0 / colorprim=2 / transfer=2 / colormatrix=2 / chromaloc=0 / display-window=0 / cll=0,0 / min-luma=0 / max-luma=1023 / log2-max-poc-lsb=8 / vui-timing-info / vui-hrd-info / slices=1 / no-opt-qp-pps / no-opt-ref-list-length-pps / no-multi-pass-opt-rps / scenecut-bias=0.05 / hist-threshold=0.03 / no-opt-cu-delta-qp / no-aq-motion / no-hdr10 / no-hdr10-opt / no-dhdr10-opt / no-idr-recovery-sei / analysis-reuse-level=0 / analysis-save-reuse-level=0 / analysis-load-reuse-level=0 / scale-factor=0 / refine-intra=0 / refine-inter=0 / refine-mv=1 / refine-ctu-distortion=0 / no-limit-sao / ctu-info=0 / no-lowpass-dct / refine-analysis-type=0 / copy-pic=1 / max-ausize-factor=1.0 / no-dynamic-refine / no-single-sei / no-hevc-aq / no-svt / no-field / qp-adaptation-range=1.00 / scenecut-aware-qp=0conformance-window-offsets / right=0 / bottom=0 / decoder-max-rate=0 / no-vbv-live-multi-pass
Default : Yes
Forced : No

Audio #1
ID : 2
Format : AC-3
Format/Info : Audio Coding 3
Commercial name : Dolby Digital
Codec ID : A_AC3
Duration : 1 h 39 min
Bit rate mode : Constant
Bit rate : 640 kb/s
Channel(s) : 6 channels
Channel layout : L R C LFE Ls Rs
Sampling rate : 48.0 kHz
Frame rate : 31.250 FPS (1536 SPF)
Compression mode : Lossy
Stream size : 456 MiB (6%)
Language : English
Service kind : Complete Main
Default : Yes
Forced : No

Audio #2
ID : 3
Format : AC-3
Format/Info : Audio Coding 3
Commercial name : Dolby Digital
Format settings : Dolby Surround
Codec ID : A_AC3
Duration : 1 h 39 min
Bit rate mode : Constant
Bit rate : 192 kb/s
Channel(s) : 2 channels
Channel layout : L R
Sampling rate : 48.0 kHz
Frame rate : 31.250 FPS (1536 SPF)
Compression mode : Lossy
Stream size : 137 MiB (2%)
Title : Commentary with Dir. Terry Zwigoff
Language : English
Service kind : Complete Main
Default : No
Forced : No

Text #1
ID : 4
Format : PGS
Muxing mode : zlib
Codec ID : S_HDMV/PGS
Codec ID/Info : Picture based subtitle format used on BDs/HD-DVDs
Duration : 1 h 33 min
Bit rate : 37.9 kb/s
Count of elements : 2138
Stream size : 25.3 MiB (0%)
Language : English
Default : No
Forced : No

Text #2
ID : 5
Format : PGS
Muxing mode : zlib
Codec ID : S_HDMV/PGS
Codec ID/Info : Picture based subtitle format used on BDs/HD-DVDs
Duration : 1 h 37 min
Bit rate : 34.3 kb/s
Count of elements : 3176
Stream size : 24.0 MiB (0%)
Title : SDH
Language : English
Default : No
Forced : No

Text #3
ID : 6
Format : PGS
Muxing mode : zlib
Codec ID : S_HDMV/PGS
Codec ID/Info : Picture based subtitle format used on BDs/HD-DVDs
Duration : 1 h 33 min
Bit rate : 30.0 kb/s
Count of elements : 2124
Stream size : 20.1 MiB (0%)
Language : French
Default : No
Forced : No

Text #4
ID : 7
Format : PGS
Muxing mode : zlib
Codec ID : S_HDMV/PGS
Codec ID/Info : Picture based subtitle format used on BDs/HD-DVDs
Duration : 1 h 33 min
Bit rate : 35.5 kb/s
Count of elements : 2166
Stream size : 23.8 MiB (0%)
Language : Italian
Default : No
Forced : No

Text #5
ID : 8
Format : PGS
Muxing mode : zlib
Codec ID : S_HDMV/PGS
Codec ID/Info : Picture based subtitle format used on BDs/HD-DVDs
Duration : 1 h 37 min
Bit rate : 33.3 kb/s
Count of elements : 2154
Stream size : 23.3 MiB (0%)
Language : Spanish
Default : No
Forced : No

Text #6
ID : 9
Format : PGS
Muxing mode : zlib
Codec ID : S_HDMV/PGS
Codec ID/Info : Picture based subtitle format used on BDs/HD-DVDs
Duration : 1 h 34 min
Bit rate : 17.1 kb/s
Count of elements : 2160
Stream size : 11.5 MiB (0%)
Language : Arabic
Default : No
Forced : No

Text #7
ID : 10
Format : PGS
Muxing mode : zlib
Codec ID : S_HDMV/PGS
Codec ID/Info : Picture based subtitle format used on BDs/HD-DVDs
Duration : 1 h 34 min
Bit rate : 22.1 kb/s
Count of elements : 2160
Stream size : 14.8 MiB (0%)
Language : Hindi
Default : No
Forced : No

Text #8
ID : 11
Format : PGS
Muxing mode : zlib
Codec ID : S_HDMV/PGS
Codec ID/Info : Picture based subtitle format used on BDs/HD-DVDs
Duration : 1 h 34 min
Bit rate : 27.2 kb/s
Count of elements : 2154
Stream size : 18.3 MiB (0%)
Language : Chinese
Default : No
Forced : No

Menu
00:00:00.000 : en:Christmas In Milwaukee
00:07:51.971 : en:Down Time
00:10:20.036 : en:"Fuck Stick?"
00:19:56.069 : en:"What D'you Want?"
00:24:26.006 : en:"Prove It"
00:32:01.711 : en:"Is Granny Spry?"
00:40:48.279 : en:Keeping A Low Profile
00:46:40.964 : en:Santa's New Hid Out
00:52:33.149 : en:Lunch Break
01:01:36.776 : en:"Wanna Play Again"
01:04:23.568 : en:"That's Gonna Sting A Little"
01:11:36.166 : en:"He's Clean"
01:16:28.375 : en:Negotiating
01:22:19.726 : en:Turning A Corner?
01:26:48.828 : en:The Wooden Pickle
01:32:42.390 : en:Last-Minute Adjustments

Source:

Remux 21.8 GB

Coming Soon:

BASEketball
Beerfest
Avengers: Infinity War 4k
Training Day
Tommy Boy
This is the End
There's Something About Mary
Avengers: Endgame 4k
Watchmen DC
Watchmen UC 4k
Before the Devil Knows You're Dead
Beverly Hills Ninja
Big Daddy
Billy Madison
Batman 4k
Rick and Morty S01
Arrested Development S03
Mobile Suit Gundam Unicorn

Related Torrents

torrent name size uploader age seed leech
611.7 MB YIFY 9
years
78 3
981.5 MB mazemaze16 9
months
59 20
2.2 GB NVEE 6
years
13 2
749.3 MB bone111 4
years
4 0
932 MB Dita496 11
years
3 1


Download torrent
7.5 GB
seeders:29
leechers:1
Bad Santa (2003) Unrated (1080p x265 HEVC 10bit BluRay AC3 5.1) [Prof]


Trackers

tracker name
udp://tracker.opentrackr.org:1337/announce
udp://tracker.coppersurfer.tk:6969/announce
udp://tracker.torrent.eu.org:451/announce
udp://tracker.tiny-vps.com:6969/announce
udp://open.stealth.si:80/announce
udp://tracker.internetwarriors.net:1337/announce
µTorrent compatible trackers list

Download torrent
7.5 GB
seeders:29
leechers:1
Bad Santa (2003) Unrated (1080p x265 HEVC 10bit BluRay AC3 5.1) [Prof]


Torrent hash: 3A401433ED35DD0747D9D15C2D7DC36BC0021132