Batman.vs.Teenage.Mutant.Ninja.Turtles.2019.1080p.WEB-DL.DD5.1.H264-FGT

seeders: 192
leechers: 61
updated:
Added by Dakshvv in Movies > HD

Download Fast Safe Anonymous
movies, software, shows...
Summary:

Batman, Batgirl and Robin forge an alliance with the Teenage Mutant Ninja Turtles to fight against the Turtles' sworn enemy, The Shredder, who has apparently teamed up with Ra's Al Ghul and The League of Assassins.

Files

Batman.vs.Teenage.Mutant.Ninja.Turtles.2019.1080p.WEB-DL.DD5.1.H264-FGT
  • Batman.vs.Teenage.Mutant.Ninja.Turtles.2019.1080p.WEB-DL.DD5.1.H264-FGT.mkv (3.2 GB)
  • RARBG.txt (0.0 KB)

Description



Screenshot






Code:



Video
ID : 1
Format : AVC
Format/Info : Advanced Video Codec
Format profile : [email protected]
Format settings : CABAC / 4 Ref Frames
Format settings, CABAC : Yes
Format settings, ReFrames : 4 frames
Codec ID : V_MPEG4/ISO/AVC
Duration : 1 h 27 min
Bit rate : 4 932 kb/s
Width : 1 912 pixels
Height : 1 072 pixels
Display aspect ratio : 16:9
Frame rate mode : Constant
Frame rate : 23.976 (23976/1000) FPS
Color space : YUV
Chroma subsampling : 4:2:0
Bit depth : 8 bits
Scan type : Progressive
Bits/(Pixel*Frame) : 0.100
Stream size : 3.00 GiB (93%)
Title : Batman.vs.Teenage.Mutant.Ninja.Turtles.2019.1080p.WEB-DL.DD5.1.H264-FGT
Language : English
Default : Yes
Forced : No
Color range : Limited
Color primaries : BT.709
Transfer characteristics : BT.709
Matrix coefficients : BT.709

Audio
ID : 2
Format : AC-3
Format/Info : Audio Coding 3
Commercial name : Dolby Digital
Codec ID : A_AC3
Duration : 1 h 27 min
Bit rate mode : Constant
Bit rate : 384 kb/s
Channel(s) : 6 channels
Channel layout : L R C LFE Ls Rs
Sampling rate : 48.0 kHz
Frame rate : 31.250 FPS (1536 SPF)
Bit depth : 16 bits
Compression mode : Lossy
Stream size : 239 MiB (7%)
Title : Batman.vs.Teenage.Mutant.Ninja.Turtles.2019.1080p.WEB-DL.DD5.1.H264-FGT
Language : English
Service kind : Complete Main
Default : Yes
Forced : No

Menu
00:00:00.000 : en:1
00:09:08.000 : en:2
00:21:13.000 : en:3
00:32:21.000 : en:4
00:41:15.000 : en:5
00:50:38.000 : en:6
01:00:42.000 : en:7
01:11:20.000 : en:8
01:23:55.000 : en:9


Related Torrents

torrent name size uploader age seed leech
742.8 MB YTSAGx 4
months
1865 515
1.4 GB YTSAGx 4
months
1786 650
796.8 MB mazemaze16 4
months
651 183
747.7 MB YTSAGx 3
months
499 109
1.4 GB YTSAGx 3
months
493 130


Download torrent
3.2 GB
seeders:192
leechers:61
Batman.vs.Teenage.Mutant.Ninja.Turtles.2019.1080p.WEB-DL.DD5.1.H264-FGT


Trackers

tracker name
http://tracker.trackerfix.com:80/announce
udp://9.rarbg.me:2760/announce
udp://9.rarbg.to:2740/announce
µTorrent compatible trackers list

Download torrent
3.2 GB
seeders:192
leechers:61
Batman.vs.Teenage.Mutant.Ninja.Turtles.2019.1080p.WEB-DL.DD5.1.H264-FGT


Torrent hash: DF66EEC7DC03C9EDD5A23E51C6744971A756544B