Big Daddy (1999) (1080p x265 HEVC 10bit BluRay AC3 5.1) [Prof]

seeders: 25
leechers: 4
updated:
Added by Prof in Movies > HEVC/x265

Download Fast Safe Anonymous
movies, software, shows...
Summary:

Layla Maloney is fed up with boyfriend Sonny Koufax's perpetual loafing, so when 5-year-old Julian is left on Sonny's doorstep, he assumes a fatherly role to prove he's responsible and to win Layla's love. Trouble is, Sonny has grown attached to the kid, who's really the son of his out-of-town roommate.

Files

  • Big Daddy (1999).mkv (6.8 GB)

Description







General

Format : Matroska
Format version : Version 4
File size : 6.85 GiB
Duration : 1 h 33 min
Overall bit rate : 10.5 Mb/s
Encoded date : UTC 2021-07-29 22:21:46
Writing application : mkvmerge v53.0.0 ('Fool's Gold') 64-bit
Writing library : libebml v1.4.1 + libmatroska v1.6.2

Video
ID : 1
Format : HEVC
Format/Info : High Efficiency Video Coding
Format profile : Main [email protected]@Main
Codec ID : V_MPEGH/ISO/HEVC
Duration : 1 h 33 min
Bit rate : 9 838 kb/s
Width : 1 920 pixels
Height : 1 040 pixels
Display aspect ratio : 1.85:1
Frame rate mode : Constant
Frame rate : 23.976 (24000/1001) FPS
Color space : YUV
Chroma subsampling : 4:2:0
Bit depth : 10 bits
Bits/(Pixel*Frame) : 0.205
Stream size : 6.40 GiB (93%)
Writing library : x265 3.5+10-82786fccc:[Windows][MSVC 1929][64 bit] 10bit
Encoding settings : cpuid=1111039 / frame-threads=4 / numa-pools=24 / wpp / no-pmode / no-pme / no-psnr / no-ssim / log-level=2 / input-csp=1 / input-res=1920x1040 / interlace=0 / total-frames=133896 / level-idc=0 / high-tier=1 / uhd-bd=0 / ref=5 / no-allow-non-conformance / no-repeat-headers / annexb / no-aud / no-eob / no-eos / no-hrd / info / hash=0 / no-temporal-layers / open-gop / min-keyint=23 / keyint=250 / gop-lookahead=0 / bframes=8 / b-adapt=2 / b-pyramid / bframe-bias=0 / rc-lookahead=40 / lookahead-slices=1 / scenecut=40 / hist-scenecut=0 / radl=0 / no-splice / no-intra-refresh / ctu=64 / min-cu-size=8 / rect / amp / max-tu-size=32 / tu-inter-depth=3 / tu-intra-depth=3 / limit-tu=4 / rdoq-level=2 / dynamic-rd=0.00 / no-ssim-rd / signhide / no-tskip / nr-intra=0 / nr-inter=0 / no-constrained-intra / strong-intra-smoothing / max-merge=4 / limit-refs=1 / limit-modes / me=3 / subme=4 / merange=57 / temporal-mvp / no-frame-dup / no-hme / weightp / weightb / no-analyze-src-pics / deblock=0:0 / sao / no-sao-non-deblock / rd=6 / selective-sao=4 / no-early-skip / rskip / no-fast-intra / no-tskip-fast / no-cu-lossless / b-intra / no-splitrd-skip / rdpenalty=0 / psy-rd=2.00 / psy-rdoq=1.00 / no-rd-refine / no-lossless / cbqpoffs=0 / crqpoffs=0 / rc=crf / crf=19.0 / qcomp=0.60 / qpstep=4 / stats-write=0 / stats-read=0 / ipratio=1.40 / pbratio=1.30 / aq-mode=3 / aq-strength=1.00 / cutree / zone-count=0 / no-strict-cbr / qg-size=32 / no-rc-grain / qpmax=69 / qpmin=0 / no-const-vbv / sar=0 / overscan=0 / videoformat=5 / range=0 / colorprim=2 / transfer=2 / colormatrix=2 / chromaloc=0 / display-window=0 / cll=0,0 / min-luma=0 / max-luma=1023 / log2-max-poc-lsb=8 / vui-timing-info / vui-hrd-info / slices=1 / no-opt-qp-pps / no-opt-ref-list-length-pps / no-multi-pass-opt-rps / scenecut-bias=0.05 / hist-threshold=0.03 / no-opt-cu-delta-qp / no-aq-motion / no-hdr10 / no-hdr10-opt / no-dhdr10-opt / no-idr-recovery-sei / analysis-reuse-level=0 / analysis-save-reuse-level=0 / analysis-load-reuse-level=0 / scale-factor=0 / refine-intra=0 / refine-inter=0 / refine-mv=1 / refine-ctu-distortion=0 / no-limit-sao / ctu-info=0 / no-lowpass-dct / refine-analysis-type=0 / copy-pic=1 / max-ausize-factor=1.0 / no-dynamic-refine / no-single-sei / no-hevc-aq / no-svt / no-field / qp-adaptation-range=1.00 / scenecut-aware-qp=0conformance-window-offsets / right=0 / bottom=0 / decoder-max-rate=0 / no-vbv-live-multi-pass
Default : Yes
Forced : No

Audio
ID : 2
Format : AC-3
Format/Info : Audio Coding 3
Commercial name : Dolby Digital
Codec ID : A_AC3
Duration : 1 h 33 min
Bit rate mode : Constant
Bit rate : 640 kb/s
Channel(s) : 6 channels
Channel layout : L R C LFE Ls Rs
Sampling rate : 48.0 kHz
Frame rate : 31.250 FPS (1536 SPF)
Compression mode : Lossy
Stream size : 426 MiB (6%)
Language : English
Service kind : Complete Main
Default : Yes
Forced : No

Text #1
ID : 3
Format : PGS
Muxing mode : zlib
Codec ID : S_HDMV/PGS
Codec ID/Info : Picture based subtitle format used on BDs/HD-DVDs
Duration : 1 h 25 min
Bit rate : 48.5 kb/s
Count of elements : 3116
Stream size : 29.8 MiB (0%)
Language : English
Default : No
Forced : No

Text #2
ID : 4
Format : PGS
Muxing mode : zlib
Codec ID : S_HDMV/PGS
Codec ID/Info : Picture based subtitle format used on BDs/HD-DVDs
Duration : 1 h 27 min
Bit rate : 41.0 kb/s
Count of elements : 3563
Stream size : 25.7 MiB (0%)
Title : SDH
Language : English
Default : No
Forced : No

Text #3
ID : 5
Format : PGS
Muxing mode : zlib
Codec ID : S_HDMV/PGS
Codec ID/Info : Picture based subtitle format used on BDs/HD-DVDs
Duration : 1 h 32 min
Bit rate : 36.8 kb/s
Count of elements : 3034
Stream size : 24.3 MiB (0%)
Language : French
Default : No
Forced : No

Menu
00:00:00.000 : en:Start
00:00:43.961 : en:Sonny Koufax
00:03:58.321 : en:Kevin's Surprise Party
00:08:49.487 : en:Julian
00:11:56.341 : en:Tripping Rollerbladers
00:16:59.602 : en:Sonny's Big Plan
00:18:36.782 : en:"I Wet My Bed"
00:21:56.482 : en:Whiz Kids
00:23:35.539 : en:Homeless Guy
00:28:59.529 : en:Magic Sunglasses
00:30:05.095 : en:Sid
00:32:52.971 : en:Mr. Brooks
00:36:15.548 : en:"When I Grow Up"
00:40:46.402 : en:Layla
00:45:13.044 : en:Bedtime Story
00:47:57.374 : en:Doing Laundry
00:51:11.902 : en:Grocery Shopping
00:53:19.905 : en:In Good Hands
00:55:16.104 : en:First Kiss
00:58:01.853 : en:Ms. Foote
00:59:50.670 : en:"Rush"
01:04:34.329 : en:Founding Fathers
01:05:36.516 : en:Going Away
01:08:36.821 : en:"Sweet Child O'Mine"
01:10:29.016 : en:Custody Hearing
01:16:02.600 : en:Sonny Takes the Stand
01:22:59.850 : en:"Growing Up"
01:24:50.544 : en:Sonny's Surprise Party
01:26:48.495 : en:End Credits

Source:

Remux 17.6 GB

Coming Soon:

Beverly Hills Ninja
Billy Madison
Batman 4k
Centurion
There Will Be Blood
The Wolf of Wall Street
The Waterboy
The Untouchables
Batman Returns 4k
Rick and Morty S02
Arrested Development S03
Mobile Suit Gundam Unicorn

So good:

Related Torrents

torrent name size uploader age seed leech
547.7 MB CharlieJade 5
years
43 3
1.4 GB YTSAGx 4
years
13 2
2.3 GB sciencefun 4
years
3 1
5.1 GB SaM 4
years
1 2
700.4 MB tebezoo 10
years
0 0


Download torrent
6.8 GB
seeders:25
leechers:4
Big Daddy (1999) (1080p x265 HEVC 10bit BluRay AC3 5.1) [Prof]


Trackers

tracker name
udp://tracker.opentrackr.org:1337/announce
udp://tracker.coppersurfer.tk:6969/announce
udp://tracker.torrent.eu.org:451/announce
udp://tracker.tiny-vps.com:6969/announce
udp://open.stealth.si:80/announce
udp://tracker.internetwarriors.net:1337/announce
µTorrent compatible trackers list

Download torrent
6.8 GB
seeders:25
leechers:4
Big Daddy (1999) (1080p x265 HEVC 10bit BluRay AC3 5.1) [Prof]


Torrent hash: 37CDA1DBE1E7DDAAD2AD54D5B7A5D9CCF874637A