Clerk.2021.1080p.WEB.h264-RUMOUR

seeders: 9
leechers: 4
updated:
Added by TheMorozko in Movies > HD

Download Fast Safe Anonymous
movies, software, shows...
Summary:

A look at Kevin Smith's life and career from his childhood in New Jersey, to the day they cemented his footprints at the world famous TCL Chinese Theater, with a flock of famous folks testifying on Silent Bob's behalf!

Files

Clerk.2021.1080p.WEB.h264-RUMOUR[rarbg]
  • Clerk.2021.1080p.WEB.h264-RUMOUR.mkv (6.0 GB)
  • RARBG.txt (0.0 KB)
  • RARBG_DO_NOT_MIRROR.exe (0.1 KB)
  • clerk.2021.1080p.web.h264-rumour.nfo (0.9 KB)

Description

Screens... (click to enlarge):


Screenshots:

presents
Clerk.2021.1080p.WEB.h264-RUMOUR

date......: 26/11/2021
size......: 6.00 GiB
runtime...: 1 h 55 min
resolution: 1920x1040
bitrate...: 7 274 kb/s
audio.....: (English) E-AC-3 6ch 192 kb/s
subs......: English
url.......: https://www.imdb.com/title/tt14024448

Rumour has it this is a Quality release!

Mediainfo

Quote:

Video
ID : 1
Format : AVC
Format/Info : Advanced Video Codec
Format profile : [email protected]
Format settings : CABAC / 4 Ref Frames
Format settings, CABAC : Yes
Format settings, Reference frames : 4 frames
Codec ID : V_MPEG4/ISO/AVC
Duration : 1 h 55 min
Bit rate mode : Constant
Bit rate : 7 274 kb/s
Nominal bit rate : 10 000 kb/s
Width : 1 920 pixels
Height : 1 040 pixels
Display aspect ratio : 1.85:1
Frame rate mode : Constant
Frame rate : 23.976 (24000/1001) FPS
Color space : YUV
Chroma subsampling : 4:2:0
Bit depth : 8 bits
Scan type : Progressive
Bits/(Pixel*Frame) : 0.152
Stream size : 5.85 GiB (97%)
Language : English
Default : Yes
Forced : No
Color range : Limited
Color primaries : BT.709
Transfer characteristics : BT.709
Matrix coefficients : BT.709

Audio
ID : 2
Format : E-AC-3
Format/Info : Enhanced AC-3
Commercial name : Dolby Digital Plus
Codec ID : A_EAC3
Duration : 1 h 55 min
Bit rate mode : Constant
Bit rate : 192 kb/s
Channel(s) : 6 channels
Channel layout : L R C LFE Ls Rs
Sampling rate : 48.0 kHz
Frame rate : 31.250 FPS (1536 SPF)
Compression mode : Lossy
Stream size : 158 MiB (3%)
Language : English
Service kind : Complete Main
Default : Yes
Forced : No

Text
ID : 3
Format : UTF-8
Codec ID : S_TEXT/UTF8
Codec ID/Info : UTF-8 Plain Text
Duration : 1 h 52 min
Bit rate : 117 b/s
Count of elements : 2677
Stream size : 97.1 KiB (0%)
Title : English
Language : English
Default : No
Forced : No

Related Torrents

torrent name size uploader age seed leech
6.4 GB TheMorozko 5
months
79 9
1.8 GB TheMorozko 5
months
70 13
2.2 GB TheMorozko 5
months
49 5
3 GB TheMorozko 5
months
5 1


Download torrent
6 GB
seeders:9
leechers:4
Clerk.2021.1080p.WEB.h264-RUMOUR


Trackers

tracker name
http://tracker.trackerfix.com:80/announce
udp://9.rarbg.me:2930/announce
udp://9.rarbg.to:2750/announce
udp://tracker.thinelephant.org:12710/announce
udp://tracker.slowcheetah.org:14760/announce
µTorrent compatible trackers list

Download torrent
6 GB
seeders:9
leechers:4
Clerk.2021.1080p.WEB.h264-RUMOUR


Torrent hash: 88D7DBC145C593BBAB4BEAD1C79B6964036A08DC