Cowboy Bebop - The Movie (2001) (1080p BluRay x265 HEVC 10bit AAC 5.1 Tuned Joy) [UTR]

seeders: 9
leechers: 3
updated:
Added by UTRCorp in Movies > HEVC/x265

Download Fast Safe Anonymous
movies, software, shows...
Summary:

Mars. Days before Halloween 2071. Villains blow up a tanker truck on Highway One, releasing a deadly virus that kills hundreds. Fearing a bigger, even more devastating biochemical attack, an astronomical reward is offered for the arrest and capture of the person behind the destruction. On the space ship "Bebop," Spike Spiegel and his crew of bounty hunters (Jet Black, Faye Valentine, Ed and Ein) are bored and short of cash. But with the news of the reward everything changes....

Files

  • Cowboy Bebop - The Movie (1080p x265 10bit FS79 Joy).mkv (1.6 GB)

Description








Media Information

Media Information

Code:

General
Format : Matroska
Format version : Version 4 / Version 2
File size : 1.56 GiB
Duration : 1 h 55 min
Overall bit rate : 1 932 kb/s
Movie name : Cowboy Bebop - The Movie (1080p x265 10bit FS79 Joy)[UTR]
Encoded date : UTC 2018-08-07 20:25:52
Writing application : mkvmerge v24.0.0 ('Beyond The Pale') 64-bit
Writing library : libebml v1.3.6 + libmatroska v1.4.9
Cover : Yes
Attachments : cover.jpg
Writing frontend : StaxRip v1.8.2.0

Video
ID : 1
Format : HEVC
Format/Info : High Efficiency Video Coding
Format profile : Main [email protected]@Main
Codec ID : V_MPEGH/ISO/HEVC
Duration : 1 h 55 min
Bit rate : 1 498 kb/s
Width : 1 776 pixels
Height : 960 pixels
Display aspect ratio : 1.85:1
Frame rate mode : Constant
Frame rate : 23.976 (24000/1001) FPS
Color space : YUV
Chroma subsampling : 4:2:0
Bit depth : 10 bits
Bits/(Pixel*Frame) : 0.037
Stream size : 1.21 GiB (77%)
Writing library : x265 2.8+19-bcdc610cf5f0:[Windows][MSVC 1914][64 bit] 10bit
Encoding settings : cpuid=1111039 / frame-threads=4 / numa-pools=16 / wpp / no-pmode / no-pme / no-psnr / ssim / log-level=2 / input-csp=1 / input-res=1776x960 / interlace=0 / total-frames=165708 / level-idc=0 / high-tier=1 / uhd-bd=0 / ref=4 / no-allow-non-conformance / no-repeat-headers / annexb / no-aud / no-hrd / info / hash=0 / no-temporal-layers / open-gop / min-keyint=23 / keyint=250 / gop-lookahead=0 / bframes=4 / b-adapt=2 / b-pyramid / bframe-bias=0 / rc-lookahead=80 / lookahead-slices=4 / scenecut=40 / radl=0 / no-intra-refresh / ctu=64 / min-cu-size=8 / rect / no-amp / max-tu-size=32 / tu-inter-depth=1 / tu-intra-depth=1 / limit-tu=0 / rdoq-level=2 / dynamic-rd=0.00 / ssim-rd / signhide / no-tskip / nr-intra=0 / nr-inter=0 / no-constrained-intra / strong-intra-smoothing / max-merge=3 / limit-refs=3 / limit-modes / me=3 / subme=3 / merange=57 / temporal-mvp / weightp / no-weightb / no-analyze-src-pics / deblock=0:0 / sao / no-sao-non-deblock / rd=4 / no-early-skip / rskip / no-fast-intra / no-tskip-fast / no-cu-lossless / no-b-intra / no-splitrd-skip / rdpenalty=0 / psy-rd=0.00 / psy-rdoq=1.00 / no-rd-refine / no-lossless / cbqpoffs=0 / crqpoffs=0 / rc=abr / bitrate=1500 / qcomp=0.60 / qpstep=4 / stats-write=0 / stats-read=2 / cplxblur=20.0 / qblur=0.5 / vbv-maxrate=2700 / vbv-bufsize=5400 / vbv-init=0.9 / ipratio=1.40 / pbratio=1.30 / aq-mode=2 / aq-strength=0.80 / cutree / zone-count=0 / no-strict-cbr / qg-size=32 / no-rc-grain / qpmax=69 / qpmin=0 / no-const-vbv / sar=0 / overscan=0 / videoformat=5 / range=0 / colorprim=2 / transfer=2 / colormatrix=2 / chromaloc=0 / display-window=0 / max-cll=0,0 / min-luma=0 / max-luma=1023 / log2-max-poc-lsb=8 / vui-timing-info / vui-hrd-info / slices=1 / no-opt-qp-pps / no-opt-ref-list-length-pps / multi-pass-opt-rps / scenecut-bias=0.05 / no-opt-cu-delta-qp / no-aq-motion / no-hdr / no-hdr-opt / no-dhdr10-opt / no-idr-recovery-sei / analysis-reuse-level=10 / scale-factor=0 / refine-intra=0 / refine-inter=0 / refine-mv=0 / limit-sao / ctu-info=0 / no-lowpass-dct / refine-mv-type=0 / copy-pic=1 / max-ausize-factor=1.0 / no-dynamic-refine / no-single-sei
Default : Yes
Forced : No

Audio #1
ID : 2
Format : AAC
Format/Info : Advanced Audio Codec
Format profile : LC
Codec ID : A_AAC
Duration : 1 h 54 min
Bit rate : 334 kb/s
Channel(s) : 6 channels
Channel positions : Front: L C R, Side: L R, LFE
Sampling rate : 48.0 kHz
Frame rate : 46.875 FPS (1024 spf)
Compression mode : Lossy
Delay relative to video : 9 ms
Stream size : 275 MiB (17%)
Language : English
Default : No
Forced : No

Audio #2
ID : 3
Format : AAC
Format/Info : Advanced Audio Codec
Format profile : LC
Codec ID : A_AAC
Duration : 1 h 55 min
Bit rate : 88.4 kb/s
Channel(s) : 2 channels
Channel positions : Front: L R
Sampling rate : 48.0 kHz
Frame rate : 46.875 FPS (1024 spf)
Compression mode : Lossy
Delay relative to video : 9 ms
Stream size : 73.0 MiB (5%)
Language : Japanese
Default : No
Forced : No

Subtitle #1
ID : 4
Format : VobSub
Muxing mode : zlib
Codec ID : S_VOBSUB
Codec ID/Info : Picture based subtitle format used on DVDs
Duration : 1 h 53 min
Bit rate : 5 808 b/s
Count of elements : 1047
Stream size : 4.73 MiB (0%)
Language : English
Default : No
Forced : No

Subtitle #2
ID : 5
Format : VobSub
Muxing mode : zlib
Codec ID : S_VOBSUB
Codec ID/Info : Picture based subtitle format used on DVDs
Duration : 1 h 53 min
Bit rate : 5 222 b/s
Count of elements : 1047
Stream size : 4.26 MiB (0%)
Language : English
Default : No
Forced : No

Subtitle #3
ID : 6
Format : VobSub
Muxing mode : zlib
Codec ID : S_VOBSUB
Codec ID/Info : Picture based subtitle format used on DVDs
Duration : 1 h 54 min
Bit rate : 6 575 b/s
Count of elements : 905
Stream size : 5.37 MiB (0%)
Language : Dutch
Default : No
Forced : No

Subtitle #4
ID : 7
Format : UTF-8
Codec ID : S_TEXT/UTF8
Codec ID/Info : UTF-8 Plain Text
Duration : 1 h 53 min
Bit rate : 60 b/s
Count of elements : 1025
Stream size : 50.2 KiB (0%)
Language : Arabic
Default : No
Forced : No

Subtitle #5
ID : 8
Format : UTF-8
Codec ID : S_TEXT/UTF8
Codec ID/Info : UTF-8 Plain Text
Duration : 1 h 54 min
Bit rate : 34 b/s
Count of elements : 725
Stream size : 28.5 KiB (0%)
Language : Danish
Default : No
Forced : No

Subtitle #6
ID : 9
Format : UTF-8
Codec ID : S_TEXT/UTF8
Codec ID/Info : UTF-8 Plain Text
Duration : 1 h 54 min
Bit rate : 38 b/s
Count of elements : 904
Stream size : 32.0 KiB (0%)
Language : Dutch
Default : No
Forced : No

Subtitle #7
ID : 10
Format : ASS
Codec ID : S_TEXT/ASS
Codec ID/Info : Advanced Sub Station Alpha
Duration : 1 h 53 min
Bit rate : 98 b/s
Count of elements : 1050
Compression mode : Lossless
Stream size : 81.8 KiB (0%)
Language : Persian
Default : No
Forced : No

Subtitle #8
ID : 11
Format : UTF-8
Codec ID : S_TEXT/UTF8
Codec ID/Info : UTF-8 Plain Text
Duration : 1 h 54 min
Bit rate : 42 b/s
Count of elements : 989
Stream size : 35.2 KiB (0%)
Language : French
Default : No
Forced : No

Subtitle #9
ID : 12
Format : UTF-8
Codec ID : S_TEXT/UTF8
Codec ID/Info : UTF-8 Plain Text
Duration : 1 h 54 min
Bit rate : 45 b/s
Count of elements : 990
Stream size : 38.6 KiB (0%)
Language : Indonesian
Default : No
Forced : No

Subtitle #10
ID : 13
Format : UTF-8
Codec ID : S_TEXT/UTF8
Codec ID/Info : UTF-8 Plain Text
Duration : 1 h 54 min
Bit rate : 36 b/s
Count of elements : 995
Stream size : 30.4 KiB (0%)
Language : Norwegian
Default : No
Forced : No

Subtitle #11
ID : 14
Format : UTF-8
Codec ID : S_TEXT/UTF8
Codec ID/Info : UTF-8 Plain Text
Duration : 1 h 54 min
Bit rate : 36 b/s
Count of elements : 994
Stream size : 30.8 KiB (0%)
Language : Swedish
Default : No
Forced : No

Subtitle #12
ID : 15
Format : UTF-8
Codec ID : S_TEXT/UTF8
Codec ID/Info : UTF-8 Plain Text
Duration : 1 h 53 min
Bit rate : 55 b/s
Count of elements : 1036
Stream size : 46.1 KiB (0%)
Language : Vietnamese
Default : No
Forced : No

Menu
00:00:00.000 : :Start
00:01:05.230 : :00:01:05.230
00:05:04.137 : :00:05:04.137
00:07:12.807 : :Shogi
00:09:19.225 : :00:09:19.225
00:12:08.226 : :CBC News
00:13:31.143 : :00:13:31.143
00:15:37.977 : :00:15:37.977
00:20:35.567 : :00:20:35.567
00:26:18.576 : :00:26:18.576
00:27:43.827 : :Western Movies
00:29:46.659 : :Purgatory
00:31:37.894 : :00:31:37.894
00:35:45.518 : :"I've Found You Hacker Boy."
00:39:23.402 : :Colonel Electra Ovilo
00:41:02.668 : :Taking Out the Trash
00:44:08.478 : :00:44:08.478
00:47:09.034 : :"I've Found Lee!"
00:49:35.972 : :Game's Over
00:51:03.393 : :00:51:03.393
00:53:06.849 : :00:53:06.849
00:55:00.170 : :00:55:00.170
01:00:47.684 : :Swimming Bird
01:01:35.692 : :01:01:35.692
01:04:42.545 : :01:04:42.545
01:05:22.083 : :01:05:22.083
01:06:43.833 : :Hacking into Cherious
01:09:37.338 : :01:09:37.338
01:12:11.159 : :01:12:11.159
01:15:58.886 : :01:15:58.886
01:18:09.850 : :In Protective Custody
01:22:04.920 : :01:22:04.920
01:24:37.572 : :01:24:37.572
01:27:08.389 : :01:27:08.389
01:33:05.746 : :Air Show
01:37:46.859 : :01:37:46.859
01:40:09.502 : :01:40:09.502
01:41:46.600 : :The Bridge to Heaven
01:50:27.287 : :End Credits
01:54:57.390 : :01:54:57.390



Source Information

Code:

Release:
Cowboy Bebop - The Movie (JP).mkv (31.08 GBs)






Note From UTR
We have no issue with individuals posting or re-uploading our torrents on a platform we aren't on. However, if this is something you'd like to do, please do so in a 'as-is' format. We ask that you do not create a new torrent, include all descriptions you see above including the UTR logo, tags, notes and screenshots. If you'd like to become a permanent poster on a website we don't post to, feel free to get in contact with a UniTeam member.

Related Torrents

torrent name size uploader age seed leech
1.9 GB YTSAGx 2
years
366 142
1 GB YTSAGx 2
years
267 87
3.9 GB UTRCorp 1
year
46 15
2.3 GB UTRCorp 3
years
16 4
3.8 GB T0M4 1
year
8 0


Download torrent
1.6 GB
seeders:9
leechers:3
Cowboy Bebop - The Movie (2001) (1080p BluRay x265 HEVC 10bit AAC 5.1 Tuned Joy) [UTR]


Trackers

tracker name
udp://tracker.opentrackr.org:1337/announce
udp://tracker.leechers-paradise.org:6969/announce
udp://tracker.coppersurfer.tk:6969/announce
udp://eddie4.nl:6969/announce
udp://tracker.torrent.eu.org:451/announce
udp://tracker.opentrackr.org:1337/announce
udp://9.rarbg.me:2710/announce
udp://9.rarbg.to:2710/announce
µTorrent compatible trackers list

Download torrent
1.6 GB
seeders:9
leechers:3
Cowboy Bebop - The Movie (2001) (1080p BluRay x265 HEVC 10bit AAC 5.1 Tuned Joy) [UTR]


Torrent hash: 3E8BB9BEAC5B1C80D55D40D243C2C34F87DF7AD2