Fear The Walking Dead S02E06 1080p WEBDL DD5 1 x265 opus bluury

seeders: 4
leechers: 0
updated:
Added by ravarage in TV > HD

Download Fast Safe Anonymous
movies, software, shows...
Summary:

Conflict arises as the Abigail approaches its destination. Chris makes a staggering decision. Nick meets a new maternal figure.

Files

  • Fear.The.Walking.Dead.S02E06.1080p.WEB-DL.DD5.1.x265.opus.bluury.mkv (305.9 MB)

Description

this is Hevc season 2 episode 6 and in the end of the season I will upload season 2 complete in hevc 1080P hope you like it

Screens





Media info

Code:

Video
ID : 1
Format : HEVC
Format/Info : High Efficiency Video Coding
Format profile : [email protected]@Main
Codec ID : V_MPEGH/ISO/HEVC
Duration : 44mn 56s
Bit rate : 803 Kbps
Width : 1 916 pixels
Height : 1 076 pixels
Display aspect ratio : 16:9
Frame rate mode : Constant
Frame rate : 23.976 (24000/1001) fps
Color space : YUV
Chroma subsampling : 4:2:0
Bit depth : 8 bits
Bits/(Pixel*Frame) : 0.016
Stream size : 258 MiB (84%)
Writing library : x265 1.9+5-20f14d78dbad:[Windows][MSVC 1900][64 bit] 8bit
Encoding settings : wpp / ctu=64 / min-cu-size=8 / max-tu-size=32 / tu-intra-depth=1 / tu-inter-depth=1 / me=1 / subme=5 / merange=57 / no-rect / no-amp / max-merge=2 / temporal-mvp / no-early-skip / rdpenalty=0 / no-tskip / no-tskip-fast / strong-intra-smoothing / no-lossless / no-cu-lossless / no-constrained-intra / no-fast-intra / open-gop / no-temporal-layers / interlace=0 / keyint=250 / min-keyint=23 / scenecut=40 / rc-lookahead=20 / lookahead-slices=6 / bframes=8 / bframe-bias=0 / b-adapt=2 / ref=4 / limit-refs=3 / limit-modes / weightp / no-weightb / aq-mode=3 / qg-size=64 / aq-strength=1.00 / cbqpoffs=0 / crqpoffs=0 / rd=3 / psy-rd=2.00 / rdoq-level=0 / psy-rdoq=0.00 / signhide / deblock=-3:-3 / sao / sao-non-deblock / b-pyramid / cutree / no-intra-refresh / rc=2 / pass / bitrate=803 / qcomp=0.60 / qpmin=0 / qpmax=51 / qpstep=4 / cplxblur=20.0 / qblur=0.5 / ipratio=1.40 / pbratio=1.30
Default : Yes
Forced : No
Color range : Limited
Color primaries : Generic film
Transfer characteristics : BT.2020
Matrix coefficients : BT.2020 constant

Audio
ID : 2
Format : Opus
Codec ID : A_OPUS
Duration : 44mn 56s
Bit rate : 146 Kbps
Channel(s) : 6 channels
Channel positions : Front: L C R, Rear: L R, LFE
Sampling rate : 48.0 KHz
Frame rate : 50.000 fps (960 spf)
Compression mode : Lossy
Stream size : 46.9 MiB (15%)
Language : English
Default : Yes
Forced : No

Text
ID : 3
Format : UTF-8
Codec ID : S_TEXT/UTF8
Codec ID/Info : UTF-8 Plain Text
Duration : 43mn 1s
Bit rate : 33 bps
Count of elements : 372
Stream size : 10.7 KiB (0%)
Language : English
Default : No
Forced : No


Related Torrents

torrent name size uploader age seed leech
293.6 MB ETTV 2
years
40 6
1.1 GB sub7 2
years
13 4
293.6 MB sub7 2
years
12 3
291.5 MB sub7 2
years
9 4
357.5 MB extremerules 2
years
5 2


Download torrent
305.9 MB
seeders:4
leechers:0
Fear The Walking Dead S02E06 1080p WEBDL DD5 1 x265 opus bluury


Trackers

tracker name
udp://tracker.opentrackr.org:1337/announce
udp://tracker.coppersurfer.tk:6969/announce
udp://tracker.openbittorrent.com:80/announce
udp://glotorrents.pw:6969/announce
udp://tracker.publicbt.com:80/announce
µTorrent compatible trackers list

Download torrent
305.9 MB
seeders:4
leechers:0
Fear The Walking Dead S02E06 1080p WEBDL DD5 1 x265 opus bluury


Torrent hash: 51802F20AEB1B1987F192AB6DBD5C043F74F55B4