Jurassic.World.3.Dominion.2022.1080p.WEBRip.x264

seeders: 3038
leechers: 1088
updated:
Added by TheMorozko in Movies > HD

Download Fast Safe Anonymous
movies, software, shows...
Summary:

Four years after Isla Nublar was destroyed, dinosaurs now live—and hunt—alongside humans all over the world. This fragile balance will reshape the future and determine, once and for all, whether human beings are to remain the apex predators on a planet they now share with history’s most fearsome creatures.

Files

Jurassic.World.3.Dominion.2022.1080p.WEBRip.x264-RARBG
  • Jurassic.World.3.Dominion.2022.1080p.WEBRip.x264-RARBG.mp4 (2.8 GB)
  • RARBG.txt (0.0 KB)
  • RARBG_DO_NOT_MIRROR.exe (0.1 KB)
  • Subs
    • 2_English.srt (145.6 KB)
    • 3_English.srt (113.0 KB)
    • 4_Spanish.srt (102.0 KB)
    • 5_French.srt (105.3 KB)

Description

Screens... :





Infolink -> https://www.imdb.com/title/tt8041270/

Mediainfo

Quote:

Video
ID : 1
Format : AVC
Format/Info : Advanced Video Codec
Format profile : [email protected]
Format settings : CABAC / 4 Ref Frames
Format settings, CABAC : Yes
Format settings, Reference frames : 4 frames
Codec ID : avc1
Codec ID/Info : Advanced Video Coding
Duration : 2 h 26 min
Bit rate : 2 500 kb/s
Width : 1 918 pixels
Height : 958 pixels
Display aspect ratio : 2.002
Frame rate mode : Constant
Frame rate : 23.976 (23976/1000) FPS
Color space : YUV
Chroma subsampling : 4:2:0
Bit depth : 8 bits
Scan type : Progressive
Bits/(Pixel*Frame) : 0.057
Stream size : 2.56 GiB (92%)
Writing library : x264 core 152 r2851M ba24899
Encoding settings : cabac=1 / ref=4 / deblock=1:-1:-1 / analyse=0x3:0x113 / me=umh / subme=9 / psy=1 / psy_rd=1.00:0.15 / mixed_ref=1 / me_range=24 / chroma_me=1 / trellis=2 / 8x8dct=1 / cqm=0 / deadzone=21,11 / fast_pskip=1 / chroma_qp_offset=-3 / threads=16 / lookahead_threads=4 / sliced_threads=0 / nr=0 / decimate=1 / interlaced=0 / bluray_compat=0 / constrained_intra=0 / bframes=3 / b_pyramid=2 / b_adapt=2 / b_bias=0 / direct=3 / weightb=1 / open_gop=0 / weightp=2 / keyint=250 / keyint_min=25 / scenecut=40 / intra_refresh=0 / rc_lookahead=50 / rc=2pass / mbtree=1 / bitrate=2500 / ratetol=1.0 / qcomp=0.60 / qpmin=0 / qpmax=69 / qpstep=4 / cplxblur=20.0 / qblur=0.5 / vbv_maxrate=31250 / vbv_bufsize=31250 / nal_hrd=none / filler=0 / ip_ratio=1.40 / aq=3:1.00
Encoded date : UTC 2022-07-14 07:51:03
Tagged date : UTC 2022-07-14 07:51:03
Codec configuration box : avcC

Audio
ID : 2
Format : AAC LC
Format/Info : Advanced Audio Codec Low Complexity
Codec ID : mp4a-40-2
Duration : 2 h 26 min
Duration_LastFrame : -11 ms
Bit rate mode : Constant
Bit rate : 224 kb/s
Channel(s) : 6 channels
Channel layout : C L R Ls Rs LFE
Sampling rate : 48.0 kHz
Frame rate : 46.875 FPS (1024 SPF)
Compression mode : Lossy
Stream size : 235 MiB (8%)
Language : English
Default : Yes
Alternate group : 1
Encoded date : UTC 2022-07-14 07:51:03
Tagged date : UTC 2022-07-14 07:51:03

Related Torrents

torrent name size uploader age seed leech
1.6 GB TGxGoodies 5
months
2272 1199
11.2 GB TheMorozko 4
months
1777 504
2.3 GB TheMorozko 4
months
1643 301
896.2 MB TGxGoodies 5
months
1440 584
3 GB mazemaze16 6
months
1097 1566


Download torrent
2.8 GB
seeders:3038
leechers:1088
Jurassic.World.3.Dominion.2022.1080p.WEBRip.x264


Trackers

tracker name
http://tracker.trackerfix.com:80/announce
udp://9.rarbg.me:2990/announce
udp://9.rarbg.to:2730/announce
udp://tracker.fatkhoala.org:13720/announce
udp://tracker.slowcheetah.org:14740/announce
µTorrent compatible trackers list

Download torrent
2.8 GB
seeders:3038
leechers:1088
Jurassic.World.3.Dominion.2022.1080p.WEBRip.x264


Torrent hash: 55CF07088C03DADBAAEABD8256CEB7AC7D59E09E