Kaagaz 2021 x264 720p ZEE5 Hindi GOPI SAHI

seeders: 133
leechers: 33
updated:
Added by PENDUDESI in Movies > Bollywood

Download Fast Safe Anonymous
movies, software, shows...
Summary:

Kaagaz (transl. Paper) is a biographical drama about a farmer, Lal Bihari's 19-year struggle to make himself come alive again when he is declared dead in Government records by interests keen to take over his assets.

Files

  • Kaagaz 2021 x264 720p ZEE5 Hindi GOPI SAHI.mkv (778.8 MB)

Description

https://www.gopisahi.ml/



Kaagaz 2021 x264 720p ZEE5 Hindi GOPI SAHI


Format : Matroska
Format version : Version 4
File size : 779 MiB
Duration : 1 h 49 min
Overall bit rate : 998 kb/s
Movie name : Kaagaz 2021 GOPI SAHI
Encoded date : UTC 2021-01-07 06:10:04

Video
ID : 1
Format : AVC
Format/Info : Advanced Video Codec
Format profile : [email protected]
Format settings : CABAC / 5 Ref Frames
Format settings, CABAC : Yes
Format settings, Reference fra : 5 frames
Codec ID : V_MPEG4/ISO/AVC
Duration : 1 h 49 min
Bit rate : 899 kb/s
Width : 1 280 pixels
Height : 538 pixels
Display aspect ratio : 2.40:1
Frame rate mode : Constant
Frame rate : 25.000 FPS
Color space : YUV
Chroma subsampling : 4:2:0
Bit depth : 8 bits
Scan type : Progressive
Bits/(Pixel*Frame) : 0.052
Stream size : 701 MiB (90%)
Title : GOPI SAHI
Writing library : x264 core 157 r2935 545de2f

Audio
ID : 2
Format : AAC LC
Format/Info : Advanced Audio Codec Low Complexity
Codec ID : A_AAC-2
Duration : 1 h 49 min
Bit rate : 96.0 kb/s
Channel(s) : 2 channels
Channel layout : L R
Sampling rate : 48.0 kHz
Frame rate : 46.875 FPS (1024 SPF)
Compression mode : Lossy
Delay relative to video : -54 ms
Stream size : 75.9 MiB (10%)
Title : GOPI SAHI
Language : Hindi
Default : Yes
Forced : No








Related Torrents

torrent name size uploader age seed leech
913.2 MB AlejandroAXL 15
days
602 87
2.1 GB Sungeorge 15
days
241 52
867.9 MB mkvCinemas 15
days
69 5
857 MB jalim 14
days
57 33
1 GB Sungeorge 15
days
27 20


Download torrent
778.8 MB
seeders:133
leechers:33
Kaagaz 2021 x264 720p ZEE5 Hindi GOPI SAHI


Trackers

tracker name
udp://tracker.coppersurfer.tk:6969/announce
udp://tracker.opentrackr.org:1337/announce
udp://tracker.leechers-paradise.org:6969/announce
udp://p4p.arenabg.com:1337/announce
udp://exodus.desync.com:6969/announce
udp://open.stealth.si:80/announce
udp://tracker.sbsub.com:2710/announce
udp://tracker.cyberia.is:6969/announce
udp://tracker.tiny-vps.com:6969/announce
udp://retracker.lanta-net.ru:2710/announce
udp://tracker.torrent.eu.org:451/announce
udp://tracker.moeking.me:6969/announce
udp://tracker3.itzmx.com:6961/announce
http://tracker1.itzmx.com:8080/announce
http://tracker.nyap2p.com:8080/announce
µTorrent compatible trackers list

Download torrent
778.8 MB
seeders:133
leechers:33
Kaagaz 2021 x264 720p ZEE5 Hindi GOPI SAHI


Torrent hash: D55DCAF23FFACF010F9E72C071128702A5525C9B