Pirates of the Caribbean - The Curse of the Black Pearl (2003) (1080p BDRip x265 10bit EAC3 5.1 - TheSickle)[TAoE].mkv

seeders: 12
leechers: 18
updated:
Added by Goki in Movies > HEVC/x265

Download Fast Safe Anonymous
movies, software, shows...
Summary:

Jack Sparrow, a freewheeling 17th-century pirate who roams the Caribbean Sea butts heads with a rival pirate bent on pillaging the village of Port Royal. When the governor's daughter is kidnapped, Sparrow decides to help the girl's love save her. But their seafaring mission is hardly simple.

Files

  • Pirates of the Caribbean - The Curse of the Black Pearl (2003) (1080p BDRip x265 10bit EAC3 5.1 - TheSickle)[TAoE].mkv (8.8 GB)

Description



Hello everyone,
We are TAoE, a small team of passionate encoders who love encoding. We try our best to provide you with high quality releases.

Requests for movies and shows are welcome.
We have a form for encode requests which can be found here
Encode requests form
submit your request and it will be added to our encoding request list
You can view our encoding request list here
Encode requests list


When or if we encode it will depend on if we can obtain a good source to encode with and
if one of the TAoE encoders chooses to encode it. Unfortunately we are not able to encode everything,
new members are welcome as that helps us encode more content!

If you would like to join TAoE submit your request here!
TAoE member applications form





Pirates of the Caribbean: The Curse of the Black Pearl (2003) IMDB











Media Information



General
Unique ID : 226448823651144694400833276942351668475 (0xAA5C75002FD268C3B3FEEE562E6514FB)
Complete name : Pirates of the Caribbean - The Curse of the Black Pearl (2003) (1080p BDRip x265 10bit EAC3 5.1 - TheSickle)[TAoE].mkv
Format : Matroska
Format version : Version 4
File size : 8.78 GiB
Duration : 2 h 23 min
Overall bit rate : 8 780 kb/s
Movie name : Pirates of the Caribbean - The Curse of the Black Pearl (2003) (1080p BDRip x265 10bit EAC3 5.1 - TheSickle)[TAoE].mkv
Writing application : Lavf58.29.100
Writing library : Lavf58.29.100
ErrorDetectionType : Per level 1

Video
ID : 1
Format : HEVC
Format/Info : High Efficiency Video Coding
Format profile : Main [email protected]@Main
Codec ID : V_MPEGH/ISO/HEVC
Duration : 2 h 23 min
Bit rate : 7 539 kb/s
Width : 1 904 pixels
Height : 800 pixels
Display aspect ratio : 2.40:1
Frame rate mode : Variable
Frame rate : 23.976 FPS
Color space : YUV
Chroma subsampling : 4:2:0
Bit depth : 10 bits
Bits/(Pixel*Frame) : 0.206
Stream size : 7.54 GiB (86%)
Title : Encoded by TheSickle for TAoE using Shinguru V1.9
Writing library : x265 3.2+35-acc5d16999e2:[Windows][GCC 9.2.1][64 bit] 10bit
Encoding settings : cpuid=1111039 / frame-threads=4 / numa-pools=24 / wpp / no-pmode / no-pme / no-psnr / no-ssim / log-level=2 / input-csp=1 / input-res=1904x800 / interlace=0 / total-frames=0 / level-idc=0 / high-tier=1 / uhd-bd=0 / ref=4 / no-allow-non-conformance / no-repeat-headers / annexb / no-aud / no-hrd / info / hash=0 / no-temporal-layers / open-gop / min-keyint=23 / keyint=250 / gop-lookahead=0 / bframes=8 / b-adapt=2 / b-pyramid / bframe-bias=0 / rc-lookahead=80 / lookahead-slices=4 / scenecut=40 / hist-scenecut=0 / radl=0 / no-splice / no-intra-refresh / ctu=64 / min-cu-size=8 / no-rect / no-amp / max-tu-size=32 / tu-inter-depth=1 / tu-intra-depth=1 / limit-tu=0 / rdoq-level=2 / dynamic-rd=0.00 / no-ssim-rd / signhide / no-tskip / nr-intra=0 / nr-inter=0 / no-constrained-intra / no-strong-intra-smoothing / max-merge=3 / limit-refs=3 / limit-modes / me=3 / subme=5 / merange=57 / temporal-mvp / no-frame-dup / no-hme / weightp / no-weightb / no-analyze-src-pics / deblock=0:0 / sao / no-sao-non-deblock / rd=4 / selective-sao=4 / no-early-skip / rskip / no-fast-intra / no-tskip-fast / no-cu-lossless / no-b-intra / no-splitrd-skip / rdpenalty=0 / psy-rd=1.30 / psy-rdoq=2.00 / no-rd-refine / no-lossless / cbqpoffs=0 / crqpoffs=0 / rc=crf / crf=19.0 / qcomp=0.60 / qpstep=4 / stats-write=0 / stats-read=0 / ipratio=1.40 / pbratio=1.30 / aq-mode=4 / aq-strength=1.10 / cutree / zone-count=0 / no-strict-cbr / qg-size=32 / no-rc-grain / qpmax=69 / qpmin=0 / no-const-vbv / sar=1 / overscan=0 / videoformat=5 / range=0 / colorprim=2 / transfer=2 / colormatrix=2 / chromaloc=0 / display-window=0 / cll=0,0 / min-luma=0 / max-luma=1023 / log2-max-poc-lsb=8 / vui-timing-info / vui-hrd-info / slices=1 / no-opt-qp-pps / no-opt-ref-list-length-pps / no-multi-pass-opt-rps / scenecut-bias=0.05 / hist-threshold=0.01 / no-opt-cu-delta-qp / no-aq-motion / no-hdr10 / no-hdr10-opt / no-dhdr10-opt / no-idr-recovery-sei / analysis-reuse-level=0 / analysis-save-reuse-level=0 / analysis-load-reuse-level=0 / scale-factor=0 / refine-intra=0 / refine-inter=0 / refine-mv=1 / refine-ctu-distortion=0 / no-limit-sao / ctu-info=0 / no-lowpass-dct / refine-analysis-type=0 / copy-pic=1 / max-ausize-factor=1.0 / no-dynamic-refine / no-single-sei / no-hevc-aq / no-svt / no-field / qp-adaptation-range=1.00 / no-scenecut-aware-qpconformance-window-offsets / right=0 / bottom=0
Language : English
Default : Yes
Forced : No
Color range : Limited

Audio #1
ID : 2
Format : E-AC-3
Format/Info : Enhanced AC-3
Commercial name : Dolby Digital Plus
Codec ID : A_EAC3
Duration : 2 h 23 min
Bit rate mode : Constant
Bit rate : 448 kb/s
Channel(s) : 6 channels
Channel layout : L R C LFE Ls Rs
Sampling rate : 48.0 kHz
Frame rate : 31.250 FPS (1536 SPF)
Bit depth : 24 bits
Compression mode : Lossy
Stream size : 459 MiB (5%)
Writing library : Lavc58.54.100 eac3
Language : English
Service kind : Complete Main
Default : Yes
Forced : No

Audio #2
ID : 3
Format : E-AC-3
Format/Info : Enhanced AC-3
Commercial name : Dolby Digital Plus
Codec ID : A_EAC3
Duration : 2 h 23 min
Bit rate mode : Constant
Bit rate : 192 kb/s
Channel(s) : 2 channels
Channel layout : L R
Sampling rate : 48.0 kHz
Frame rate : 31.250 FPS (1536 SPF)
Bit depth : 32 bits
Compression mode : Lossy
Stream size : 197 MiB (2%)
Title : Commentary by Director Gore Verbinski and Actor Johnny Depp (Jack Sparrow) (Dolby Digital Audio / 2.0 / 48 kHz / 192 kbps)
Writing library : Lavc58.54.100 eac3
Language : English
Service kind : Complete Main
Default : No
Forced : No

Audio #3
ID : 4
Format : E-AC-3
Format/Info : Enhanced AC-3
Commercial name : Dolby Digital Plus
Codec ID : A_EAC3
Duration : 2 h 23 min
Bit rate mode : Constant
Bit rate : 192 kb/s
Channel(s) : 2 channels
Channel layout : L R
Sampling rate : 48.0 kHz
Frame rate : 31.250 FPS (1536 SPF)
Bit depth : 32 bits
Compression mode : Lossy
Stream size : 197 MiB (2%)
Title : Commentary by Actors Keira Knightley (Elizabeth Swann) & Jack Davenport (Norrington) (Dolby Digital Audio / 2.0 / 48 kHz / 192 kbps)
Writing library : Lavc58.54.100 eac3
Language : English
Service kind : Complete Main
Default : No
Forced : No

Audio #4
ID : 5
Format : E-AC-3
Format/Info : Enhanced AC-3
Commercial name : Dolby Digital Plus
Codec ID : A_EAC3
Duration : 2 h 23 min
Bit rate mode : Constant
Bit rate : 192 kb/s
Channel(s) : 2 channels
Channel layout : L R
Sampling rate : 48.0 kHz
Frame rate : 31.250 FPS (1536 SPF)
Bit depth : 32 bits
Compression mode : Lossy
Stream size : 197 MiB (2%)
Title : Commentary by Writers Jay Wolpert, Ted Elliott, Terry Rossio and Stuart Beattie (Dolby Digital Audio / 2.0 / 48 kHz / 192 kbps)
Writing library : Lavc58.54.100 eac3
Language : English
Service kind : Complete Main
Default : No
Forced : No

Text #1
ID : 6
Format : PGS
Codec ID : S_HDMV/PGS
Codec ID/Info : Picture based subtitle format used on BDs/HD-DVDs
Duration : 2 h 12 min
Bit rate : 24.7 kb/s
Count of elements : 3848
Stream size : 23.4 MiB (0%)
Title : SDH
Language : English
Default : No
Forced : No

Text #2
ID : 7
Format : PGS
Codec ID : S_HDMV/PGS
Codec ID/Info : Picture based subtitle format used on BDs/HD-DVDs
Duration : 2 h 22 min
Bit rate : 38.2 kb/s
Count of elements : 3826
Stream size : 39.0 MiB (0%)
Title : Commentary by Director Gore Verbinski and Actor Johnny Depp (Jack Sparrow)
Language : English
Default : No
Forced : No

Text #3
ID : 8
Format : PGS
Codec ID : S_HDMV/PGS
Codec ID/Info : Picture based subtitle format used on BDs/HD-DVDs
Duration : 2 h 13 min
Bit rate : 42.4 kb/s
Count of elements : 4176
Stream size : 40.4 MiB (0%)
Title : Commentary by Actors Keira Knightley (Elizabeth Swann) & Jack Davenport (Norrington)
Language : English
Default : No
Forced : No

Text #4
ID : 9
Format : PGS
Codec ID : S_HDMV/PGS
Codec ID/Info : Picture based subtitle format used on BDs/HD-DVDs
Duration : 2 h 21 min
Bit rate : 43.8 kb/s
Count of elements : 4226
Stream size : 44.3 MiB (0%)
Title : Commentary by Writers Jay Wolpert, Ted Elliott, Terry Rossio and Stuart Beattie
Language : English
Default : No
Forced : No

Text #5
ID : 10
Format : PGS
Codec ID : S_HDMV/PGS
Codec ID/Info : Picture based subtitle format used on BDs/HD-DVDs
Duration : 2 h 11 min
Bit rate : 24.5 kb/s
Count of elements : 390
Stream size : 23.0 MiB (0%)
Title : History of Pirates
Language : English
Default : No
Forced : No

Text #6
ID : 11
Format : PGS
Codec ID : S_HDMV/PGS
Codec ID/Info : Picture based subtitle format used on BDs/HD-DVDs
Duration : 2 h 13 min
Bit rate : 23.1 kb/s
Count of elements : 3258
Stream size : 22.0 MiB (0%)
Language : Russian
Default : No
Forced : No

Text #7
ID : 12
Format : PGS
Codec ID : S_HDMV/PGS
Codec ID/Info : Picture based subtitle format used on BDs/HD-DVDs
Duration : 2 h 12 min
Bit rate : 21.5 kb/s
Count of elements : 2464
Stream size : 20.5 MiB (0%)
Language : Russian
Default : No
Forced : No

Menu
00:00:00.000 : :Opening Credits/a Pirate's Life
00:08:51.280 : :Pirates Ye Be Warned
00:16:05.547 : :Elizabeth's Rescue
00:27:16.343 : :The Black Pearl
00:35:59.323 : :Welcome Aboard
00:41:02.960 : :The Hunt
00:48:19.938 : :Finding a Crew
00:54:01.279 : :Aztec Gold
01:04:05.675 : :The Treasure of Cortez
01:15:56.802 : :Keep to the Code
01:21:21.418 : :The Battle
01:35:00.152 : :Stranded Again
01:40:00.744 : :The Curse
01:48:15.613 : :The Trojan Horse
02:02:02.189 : :The Curse Is Lifted
02:13:09.648 : :End Credits

Source



General
Unique ID : 134712980947749097304118160825935562751 (0x6558C6C1870371E8D538C7708EA187FF)
Complete name : Pirates.of.the.Caribbean.The.Curse.of.the.Black.Pearl.2003.1080p.BluRay.REMUX.AVC.DTS-HD.MA.5.1-EPSiLON.mkv
Format : Matroska
Format version : Version 4
File size : 23.2 GiB
Duration : 2 h 23 min
Overall bit rate mode : Variable
Overall bit rate : 23.2 Mb/s
Encoded date : UTC 2017-02-19 18:53:24
Writing application : mkvmerge v9.6.0 ('Slave To Your Mind') 64bit
Writing library : libebml v1.3.4 + libmatroska v1.4.5

Video
ID : 1
Format : AVC
Format/Info : Advanced Video Codec
Format profile : [email protected]
Format settings : CABAC / 3 Ref Frames
Format settings, CABAC : Yes
Format settings, Reference frames : 3 frames
Format settings, GOP : M=3, N=24
Codec ID : V_MPEG4/ISO/AVC
Duration : 2 h 23 min
Bit rate mode : Variable
Bit rate : 20.0 Mb/s
Maximum bit rate : 40.0 Mb/s
Width : 1 920 pixels
Height : 1 080 pixels
Display aspect ratio : 16:9
Frame rate mode : Constant
Frame rate : 23.976 (24000/1001) FPS
Color space : YUV
Chroma subsampling : 4:2:0
Bit depth : 8 bits
Scan type : Progressive
Bits/(Pixel*Frame) : 0.403
Stream size : 20.1 GiB (86%)
Title : MPEG-4 AVC Video / 20047 kbps / 1080p / 23.976 fps / 16:9 / High Profile 4.1
Language : English
Default : Yes
Forced : No

Audio #1
ID : 2
Format : DTS XLL
Format/Info : Digital Theater Systems
Commercial name : DTS-HD Master Audio
Codec ID : A_DTS
Duration : 2 h 23 min
Bit rate mode : Variable
Bit rate : 2 348 kb/s
Channel(s) : 6 channels
Channel layout : C L R Ls Rs LFE
Sampling rate : 48.0 kHz
Frame rate : 93.750 FPS (512 SPF)
Bit depth : 24 bits
Compression mode : Lossless
Stream size : 2.35 GiB (10%)
Language : English
Default : Yes
Forced : No

Audio #2
ID : 3
Format : AC-3
Format/Info : Audio Coding 3
Commercial name : Dolby Digital
Codec ID : A_AC3
Duration : 2 h 23 min
Bit rate mode : Constant
Bit rate : 192 kb/s
Channel(s) : 2 channels
Channel layout : L R
Sampling rate : 48.0 kHz
Frame rate : 31.250 FPS (1536 SPF)
Compression mode : Lossy
Stream size : 197 MiB (1%)
Title : Commentary by Director Gore Verbinski and Actor Johnny Depp (Jack Sparrow) (Dolby Digital Audio / 2.0 / 48 kHz / 192 kbps)
Language : English
Service kind : Complete Main
Default : No
Forced : No

Audio #3
ID : 4
Format : AC-3
Format/Info : Audio Coding 3
Commercial name : Dolby Digital
Codec ID : A_AC3
Duration : 2 h 23 min
Bit rate mode : Constant
Bit rate : 192 kb/s
Channel(s) : 2 channels
Channel layout : L R
Sampling rate : 48.0 kHz
Frame rate : 31.250 FPS (1536 SPF)
Compression mode : Lossy
Stream size : 197 MiB (1%)
Title : Commentary by Actors Keira Knightley (Elizabeth Swann) & Jack Davenport (Norrington) (Dolby Digital Audio / 2.0 / 48 kHz / 192 kbps)
Language : English
Service kind : Complete Main
Default : No
Forced : No

Audio #4
ID : 5
Format : AC-3
Format/Info : Audio Coding 3
Commercial name : Dolby Digital
Codec ID : A_AC3
Duration : 2 h 23 min
Bit rate mode : Constant
Bit rate : 192 kb/s
Channel(s) : 2 channels
Channel layout : L R
Sampling rate : 48.0 kHz
Frame rate : 31.250 FPS (1536 SPF)
Compression mode : Lossy
Stream size : 197 MiB (1%)
Title : Commentary by Writers Jay Wolpert, Ted Elliott, Terry Rossio and Stuart Beattie (Dolby Digital Audio / 2.0 / 48 kHz / 192 kbps)
Language : English
Service kind : Complete Main
Default : No
Forced : No

Text #1
ID : 6
Format : PGS
Codec ID : S_HDMV/PGS
Codec ID/Info : Picture based subtitle format used on BDs/HD-DVDs
Duration : 2 h 12 min
Bit rate : 24.7 kb/s
Count of elements : 3848
Stream size : 23.4 MiB (0%)
Title : SDH
Language : English
Default : No
Forced : No

Text #2
ID : 7
Format : PGS
Codec ID : S_HDMV/PGS
Codec ID/Info : Picture based subtitle format used on BDs/HD-DVDs
Duration : 2 h 22 min
Bit rate : 38.2 kb/s
Count of elements : 3826
Stream size : 39.0 MiB (0%)
Title : Commentary by Director Gore Verbinski and Actor Johnny Depp (Jack Sparrow)
Language : English
Default : No
Forced : No

Text #3
ID : 8
Format : PGS
Codec ID : S_HDMV/PGS
Codec ID/Info : Picture based subtitle format used on BDs/HD-DVDs
Duration : 2 h 13 min
Bit rate : 42.4 kb/s
Count of elements : 4176
Stream size : 40.4 MiB (0%)
Title : Commentary by Actors Keira Knightley (Elizabeth Swann) & Jack Davenport (Norrington)
Language : English
Default : No
Forced : No

Text #4
ID : 9
Format : PGS
Codec ID : S_HDMV/PGS
Codec ID/Info : Picture based subtitle format used on BDs/HD-DVDs
Duration : 2 h 21 min
Bit rate : 43.8 kb/s
Count of elements : 4226
Stream size : 44.3 MiB (0%)
Title : Commentary by Writers Jay Wolpert, Ted Elliott, Terry Rossio and Stuart Beattie
Language : English
Default : No
Forced : No

Text #5
ID : 10
Format : PGS
Codec ID : S_HDMV/PGS
Codec ID/Info : Picture based subtitle format used on BDs/HD-DVDs
Duration : 2 h 11 min
Bit rate : 24.5 kb/s
Count of elements : 390
Stream size : 23.0 MiB (0%)
Title : History of Pirates
Language : English
Default : No
Forced : No

Text #6
ID : 11
Format : PGS
Codec ID : S_HDMV/PGS
Codec ID/Info : Picture based subtitle format used on BDs/HD-DVDs
Duration : 2 h 13 min
Bit rate : 23.1 kb/s
Count of elements : 3258
Stream size : 22.0 MiB (0%)
Language : Russian
Default : No
Forced : No

Text #7
ID : 12
Format : PGS
Codec ID : S_HDMV/PGS
Codec ID/Info : Picture based subtitle format used on BDs/HD-DVDs
Duration : 2 h 12 min
Bit rate : 21.5 kb/s
Count of elements : 2464
Stream size : 20.5 MiB (0%)
Language : Russian
Default : No
Forced : No

Menu
00:00:00.000 : en:Opening Credits/a Pirate's Life
00:08:51.280 : en:Pirates Ye Be Warned
00:16:05.547 : en:Elizabeth's Rescue
00:27:16.343 : en:The Black Pearl
00:35:59.323 : en:Welcome Aboard
00:41:02.960 : en:The Hunt
00:48:19.938 : en:Finding a Crew
00:54:01.279 : en:Aztec Gold
01:04:05.675 : en:The Treasure of Cortez
01:15:56.802 : en:Keep to the Code
01:21:21.418 : en:The Battle
01:35:00.152 : en:Stranded Again
01:40:00.744 : en:The Curse
01:48:15.613 : en:The Trojan Horse
02:02:02.189 : en:The Curse Is Lifted
02:13:09.648 : en:End Credits

Related Torrents

torrent name size uploader age seed leech
900.9 MB YIFY 8
years
372 32
2 GB YIFY 8
years
223 48
1.2 GB MovCr 1
year
31 4
9 GB Garshasp 11
months
28 3
9.1 GB Garshasp 8
months
27 7


Download torrent
8.8 GB
seeders:12
leechers:18
Pirates of the Caribbean - The Curse of the Black Pearl (2003) (1080p BDRip x265 10bit EAC3 5.1 - TheSickle)[TAoE].mkv


Trackers

tracker name
udp://tracker.coppersurfer.tk:6969/announce
udp://tracker.internetwarriors.net:1337/announce
http://tracker.opentrackr.org:1337/announce
udp://denis.stalker.upeer.me:6969/announce
udp://tracker.internetwarriors.net:1337
udp://9.rarbg.me:2720/announce
udp://explodie.org:6969/announce
udp://tracker.cyberia.is:6969/announce
udp://thetracker.org/announce
udp://open.demonii.si:1337/announce
µTorrent compatible trackers list

Download torrent
8.8 GB
seeders:12
leechers:18
Pirates of the Caribbean - The Curse of the Black Pearl (2003) (1080p BDRip x265 10bit EAC3 5.1 - TheSickle)[TAoE].mkv


Torrent hash: D2A0CA5DB0BDE884A9BBCDA9E732EFA3E0EE1961