Rashtra.Kavach.Om.2022.720p.Zee5.WebRip.Hindi.AAC5.1.H.264-themoviesboss

seeders: 83
leechers: 17
updated:
Added by tmb001 in Movies > Bollywood

Download Fast Safe Anonymous
movies, software, shows...
Summary:

After losing his memory while fighting enemies, Om, a special forces para commando officer, is on a mission to save the nation from terrorists. As he fights the challenges the mission presents, he learns a shocking truth about his life while dealing with amnesia.

Files

  • Rashtra.Kavach.Om.2022.720p.Zee5.WebRip.AAC5.1.H.264-themoviesboss.mkv (990.7 MB)

Description



Rashtra.Kavach.Om.2022.720p.Zee5.WebRip.Hindi.AAC5.1.H.264-themoviesboss



Media Info



Format : Matroska
Format version : Version 4
File size : 991 MiB
Duration : 2 h 7 min
Overall bit rate : 1 083 kb/s
Encoded date : UTC 2022-08-10 19:11:19
Writing application : mkvmerge
Writing library : libebml v1.4.2 + libmatroska v1.6.4

Video
ID : 1
Format : AVC
Format/Info : Advanced Video Codec
Format profile : [email protected]
Format settings : CABAC / 4 Ref Frames
Format settings, CABAC : Yes
Format settings, Reference frames : 4 frames
Codec ID : V_MPEG4/ISO/AVC
Duration : 2 h 7 min
Bit rate : 893 kb/s
Width : 1 280 pixels
Height : 720 pixels
Display aspect ratio : 2.40:1
Frame rate mode : Constant
Frame rate : 25.000 FPS
Color space : YUV
Chroma subsampling : 4:2:0
Bit depth : 8 bits
Scan type : Progressive
Bits/(Pixel*Frame) : 0.039
Stream size : 816 MiB (82%)
Title : themoviesboss
Writing library : x264 core 164 r3065 ae03d92
Default : Yes
Forced : No
Color range : Limited
Color primaries : BT.709
Transfer characteristics : BT.709
Matrix coefficients : BT.709

Audio
ID : 2
Format : AAC LC
Format/Info : Advanced Audio Codec Low Complexity
Codec ID : A_AAC-2
Duration : 2 h 7 min
Bit rate : 192 kb/s
Channel(s) : 6 channels
Channel layout : C L R Ls Rs LFE
Sampling rate : 48.0 kHz
Frame rate : 46.875 FPS (1024 SPF)
Compression mode : Lossy
Delay relative to video : -21 ms
Stream size : 172 MiB (17%)
Title : themoviesboss
Language : Hindi
Default : Yes
Forced : No

Text
ID : 3
Format : UTF-8
Codec ID : S_TEXT/UTF8
Codec ID/Info : UTF-8 Plain Text
Duration : 2 h 2 min
Bit rate : 43 b/s
Frame rate : 0.191 FPS
Count of elements : 1407
Stream size : 39.3 KiB (0%)
Title : themoviesboss
Language : English
Default : Yes
Forced : No




Screenshots:












Don't Forget to Seed After Download


Related Torrents

torrent name size uploader age seed leech
1.3 GB krishh1337 1
month
231 44
2.2 GB mazemaze16 1
month
126 22
1.6 GB tmb001 1
month
110 16


Download torrent
990.7 MB
seeders:83
leechers:17
Rashtra.Kavach.Om.2022.720p.Zee5.WebRip.Hindi.AAC5.1.H.264-themoviesboss


Trackers

tracker name
udp://tracker.tiny-vps.com:6969/announce
udp://fasttracker.foreverpirates.co:6969/announce
udp://tracker.opentrackr.org:1337/announce
udp://explodie.org:6969/announce
udp://open.stealth.si:80/announce
udp://tracker.cyberia.is:6969/announce
udp://ipv4.tracker.harry.lu:80/announce
udp://tracker.uw0.xyz:6969/announce
udp://tracker.dler.org:6969/announce
udp://9.rarbg.to:2740/announce
udp://open.free-tracker.ga:6969/announce
udp://vibe.sleepyinternetfun.xyz:1738/announce
udp://tracker.birkenwald.de:6969/announce
udp://open.dstud.io:6969/announce
udp://open.xxtor.com:3074/announce
µTorrent compatible trackers list

Download torrent
990.7 MB
seeders:83
leechers:17
Rashtra.Kavach.Om.2022.720p.Zee5.WebRip.Hindi.AAC5.1.H.264-themoviesboss


Torrent hash: F76D3F11BEACDC16217CD726B5CE3EDD44A45AD3