RRR (2022) DUAL (Hindi+Telugu) (1080p NF WEBRip x265 HEVC 10bit DDP Atmos 5.1 ESub) - [Musafirboy]

seeders: 195
leechers: 68
updated:

Download Fast Safe Anonymous
movies, software, shows...
Summary:

A fictional history of two legendary revolutionaries journey away from home before they began fighting for their country in the 1920s.

Files

RRR.(2022).DUAL.1080p.WEBRip.DDP.Atmos.5.1.HEVC-[MusafirBoy]
  • Encoded by Musafirboy.txt (0.4 KB)
  • Musafirboy Official.url (0.0 KB)
  • RRR.(2022).DUAL.1080p.WEBRip.DDP.Atmos.5.1.HEVC-[MusafirBoy].mkv (4.4 GB)

Description




RRR (2022) DUAL | 1080p ???? 10Bit | DDP Atmos 5.1

? Original Audio: Telugu | Dubbed Audio: Hindi







~ For Quality Lovers ~
⭐Click Here for CRF based 10bit Encode⭐



Source Information


Code:

Release:
RRR.(2022).1080p.NF.WEB-DL.DDP5.1.Atmos.HEVC-ShiNobi  ~ 8.2 GB
★ Telugu DDP Atmos 5.1 Audio from Zee5


Media Information


Code:

General
Complete name : RRR.(2022).DUAL.1080p.WEBRip.DDP.Atmos.5.1.HEVC-[MusafirBoy].mkv
Format : Matroska
Format version : Version 4
File size : 4.36 GiB
Duration : 3 h 4 min
Overall bit rate : 3373 kb/s
Movie name : RRR.(2022).DUAL.1080p.WEBRip.DDP.Atmos.5.1.HEVC-[MusafirBoy]
Encoded date : UTC 2022-05-20 10:33:16
Writing application : [MusafirBoy]

Video
Format : HEVC
Format/Info : High Efficiency Video Coding
Format profile : Main [email protected]@Main
Codec ID : V_MPEGH/ISO/HEVC
Duration : 3 h 4 min
Bit rate : 2475 kb/s
Width : 1920 pixels
Height : 1008 pixels
Display aspect ratio : 1.905
Frame rate mode : Constant
Frame rate : 24.000 FPS
Color space : YUV
Chroma subsampling : 4:2:0
Bit depth : 10 bits
Bits/(Pixel*Frame) : 0.053
Stream size : 3.20 GiB (73%)
Default : Yes
Forced : No
Color range : Limited
Color primaries : BT.709
Transfer characteristics : BT.709
Matrix coefficients : BT.709

Audio #1
Format : E-AC-3 JOC
Format/Info : Enhanced AC-3 with Joint Object Coding
Commercial name : Dolby Digital Plus with Dolby Atmos
Codec ID : A_EAC3
Duration : 3 h 4 min
Bit rate mode : Constant
Bit rate : 448 kb/s
Channel(s) : 6 channels
Channel layout : L R C LFE Ls Rs
Sampling rate : 48.0 kHz
Frame rate : 31.250 FPS (1536 SPF)
Compression mode : Lossy
Delay relative to video : 31 ms
Stream size : 592 MiB (13%)
Title : NF Atmos 5.1
Language : Hindi
Service kind : Complete Main
Default : Yes
Forced : No
Complexity index : 16
Number of dynamic objects : 15
Bed channel count : 1 channel
Bed channel configuration : LFE

Audio #2
Format : E-AC-3 JOC
Format/Info : Enhanced AC-3 with Joint Object Coding
Commercial name : Dolby Digital Plus with Dolby Atmos
Codec ID : A_EAC3
Duration : 3 h 4 min
Bit rate mode : Constant
Bit rate : 448 kb/s
Channel(s) : 6 channels
Channel layout : L R C LFE Ls Rs
Sampling rate : 48.0 kHz
Frame rate : 31.250 FPS (1536 SPF)
Compression mode : Lossy
Delay relative to video : 31 ms
Stream size : 592 MiB (13%)
Title : Zee5 Atmos 5.1
Language : Telugu
Service kind : Complete Main
Default : No
Forced : No
Complexity index : 16
Number of dynamic objects : 15
Bed channel count : 1 channel
Bed channel configuration : LFE

Subtitle
Format : UTF-8
Codec ID : S_TEXT/UTF8
Codec ID/Info : UTF-8 Plain Text
Duration : 2 h 56 min
Bit rate : 36 b/s
Count of elements : 1429
Stream size : 47.3 KiB (0%)
Title : English
Language : English
Default : Yes
Forced : No





If you are financially able, please consider making a donation
bitcoin address: 3MHSQJWzztF6gv97qzqeoZSadPZ2GziMSX



Related Torrents

torrent name size uploader age seed leech
2.6 GB Suryadipta 3
months
1053 369
1.7 GB prolover 3
months
931 154
1.5 GB krishh1337 1
month
401 117
2.3 GB mazemaze16 1
month
340 81
807.1 MB mazemaze16 3
months
297 97


Download torrent
4.4 GB
seeders:195
leechers:68
RRR (2022) DUAL (Hindi+Telugu) (1080p NF WEBRip x265 HEVC 10bit DDP Atmos 5.1 ESub) - [Musafirboy]


Trackers

tracker name
udp://tracker.leechers-paradise.org:6969/announce
udp://tracker.coppersurfer.tk:6969/announce
udp://tracker.opentrackr.org:1337/announce
udp://p4p.arenabg.com:1337/announce
https://tracker.nanoha.org:443/announce
https://tracker.lilithraws.cf:443/announce
https://tracker.iriseden.fr:443/announce
https://t1.tokhmi.xyz:443/announce
http://vps02.net.orel.ru:80/announce
http://googer.cc:1337/announce
https://tracker.nitrix.me:443/announce
https://mytracker.fly.dev:443/announce
http://tracker.bt4g.com:2095/announce
http://fxtt.ru:80/announce
µTorrent compatible trackers list

Download torrent
4.4 GB
seeders:195
leechers:68
RRR (2022) DUAL (Hindi+Telugu) (1080p NF WEBRip x265 HEVC 10bit DDP Atmos 5.1 ESub) - [Musafirboy]


Torrent hash: 99821ABE8CCD3F9178B8AA3DF1F11E6D6B470E6F