Silence… Can You Hear It (2021) Hindi 720p WEBDL x264 AAC . ESub

seeders: 414
leechers: 55
updated:
Added by krishh1337 in Movies > Bollywood

Download Fast Safe Anonymous
movies, software, shows...
Summary:

When everyone is hiding the truth, justice will thrive despite the silence. Prepare for a murder mystery that will keep you guessing till the end.

Files

  • Silence… Can You Hear It (2021) Hindi 720p WEBDL x264 AAC . ESub.mkv (953.2 MB)

Description



Silence.. Can You Hear It? (2021):
A woman is found murdered under mysterious circumstances, ACP Avinash Verma,
an intuitive and determined police officer, is roped in to investigate the high-profile case.

Cast: Manoj Bajpayee, Prachi Desai, Arjun Mathur, Sahil Vaid, Vaquar,
Barkha Singh, Shirish Sharma, Sohaila Kapoor, Amit Thakkar, Garima Yagnik.

Director: Aban Bharucha Deohans.

Format : Matroska
Format version : Version 4
File size : 953 MiB
Duration : 2 h 16 min
Overall bit rate mode : Variable
Overall bit rate : 978 kb/s

Video
ID : 1
Format : AVC
Format/Info : Advanced Video Codec
Format profile : [email protected]
Format settings : CABAC / 4 Ref Frames
Format settings, CABAC : Yes
Format settings, Reference frames : 4 frames
Codec ID : V_MPEG4/ISO/AVC
Duration : 2 h 16 min
Bit rate mode : Variable
Bit rate : 914 kb/s
Maximum bit rate : 2 250 kb/s
Width : 1 280 pixels
Height : 720 pixels

Audio
ID : 2
Format : AAC LC
Format/Info : Advanced Audio Codec Low Complexity
Codec ID : A_AAC-2
Duration : 2 h 16 min
Bit rate : 61.4 kb/s
Channel(s) : 2 channels
Channel layout : L R
Sampling rate : 48.0 kHz
Frame rate : 46.875 FPS (1024 SPF)
Compression mode : Lossy
Delay relative to video : -33 ms
Stream size : 59.8 MiB (6%)
Language : Hindi
Default : Yes
Forced : No

Text
ID : 3
Format : UTF-8
Codec ID : S_TEXT/UTF8
Codec ID/Info : UTF-8 Plain Text
Duration : 2 h 12 min
Bit rate : 76 b/s
Count of elements : 2495
Stream size : 75.0 KiB (0%)
Language : English

Related Torrents

torrent name size uploader age seed leech
1.1 GB mkvCinemas 8
months
148 9
2.1 GB Sava 8
months
115 16
972.3 MB Thegopisahi 8
months
61 9
2 GB Mazerelease 8
months
29 11


Download torrent
953.2 MB
seeders:414
leechers:55
Silence… Can You Hear It (2021) Hindi 720p WEBDL x264 AAC . ESub


Trackers

tracker name
udp://9.rarbg.me:2780/announce
udp://tracker.tiny-vps.com:6969/announce
udp://tracker.torrent.eu.org:451/announce
udp://exodus.desync.com:6969/announce
http://explodie.org:6969/announce
http://tracker.opentrackr.org:1337/announce
udp://9.rarbg.to:2800/announce
http://tracker.skyts.net:6969/announce
http://t.nyaatracker.com:80/announce
udp://open.stealth.si:80/announce
http://91.217.91.21:3218/announce
http://tracker.dler.org:6969/announce
udp://ipv4.tracker.harry.lu:80/announce
udp://9.rarbg.me:2720/announce
udp://9.rarbg.to:2720/announce
udp://bt2.archive.org:6969/announce
udp://bt1.archive.org:6969/announce
http://tracker.foreverpirates.co:80/announce
µTorrent compatible trackers list

Download torrent
953.2 MB
seeders:414
leechers:55
Silence… Can You Hear It (2021) Hindi 720p WEBDL x264 AAC . ESub


Torrent hash: C0DEDCE412C4F34D1314929550C562E0DB1F72FF