Sweet Release 2024 Explicit 1080p HDRip ESub x264 AAC - QRips

seeders: 230
leechers: 158
updated:

Download Fast Safe Anonymous
movies, software, shows...
Summary:

Director: Pancho Maniquis Cast: Anthony Dabao, Ataska Mercado, Dyessa Garcia, Horace Mendoza, em Milton, Mhack Morales

Files

  • Sweet Release 2024 Explicit 1080p HDRip ESub x264 AAC - QRips.mkv (1.9 GB)

Description



Sweet Release 2024 Explicit 1080p HDRip ESub x264 AAC - QRips



Video
ID : 1
Format : AVC
Format/Info : Advanced Video Codec
Format profile : [email protected]
Format settings : CABAC / 4 Ref Frames
Format settings, CABAC : Yes
Format settings, Reference frames : 4 frames
Codec ID : V_MPEG4/ISO/AVC
Duration : 1 h 41 min
Bit rate : 2 500 kb/s
Width : 1 920 pixels
Height : 1 012 pixels

Audio
ID : 2
Format : AAC LC
Format/Info : Advanced Audio Codec Low Complexity
Codec ID : A_AAC-2
Duration : 1 h 41 min
Bit rate : 223 kb/s
Channel(s) : 6 channels
Channel layout : C L R Ls Rs LFE
Sampling rate : 48.0 kHz
Frame rate : 46.875 FPS (1024 SPF)
Compression mode : Lossy
Delay relative to video : -33 ms
Stream size : 161 MiB (8%)
Language : Tagalog
Default : Yes
Forced : No

Text
ID : 3
Format : UTF-8
Codec ID : S_TEXT/UTF8
Codec ID/Info : UTF-8 Plain Text
Duration : 1 h 35 min
Bit rate : 36 b/s
Count of elements : 1280
Stream size : 25.9 KiB (0%)
Language : English
Default : Yes
Forced : Yes


Screens:

















































Related Torrents

torrent name size uploader age seed leech
1 GB bone111 19
days
356 218


Download torrent
1.9 GB
seeders:230
leechers:158
Sweet Release 2024 Explicit 1080p HDRip ESub x264 AAC - QRips


Trackers

tracker name
udp://tracker.opentrackr.org:1337/announce
udp://exodus.desync.com:6969/announce
udp://9.rarbg.me:2970/announce
udp://tracker.opentrackr.org:1337/announce
udp://tracker.tiny-vps.com:6969/announce
udp://tracker.internetwarriors.net:1337/announce
udp://opentor.org:2710/announce
udp://tracker.torrent.eu.org:451/announce
udp://explodie.org:6969/announce
udp://tracker.moeking.me:6969/announce
udp://tracker.cyberia.is:6969/announce
udp://9.rarbg.me:2980/announce
udp://9.rarbg.to:2940/announce
udp://tracker.uw0.xyz:6969/announce
udp://tracker.openbittorrent.com:1337/announce
µTorrent compatible trackers list

Download torrent
1.9 GB
seeders:230
leechers:158
Sweet Release 2024 Explicit 1080p HDRip ESub x264 AAC - QRips


Torrent hash: 9406DB4029831C8DE1B8A88179F1076522A5CC7C