The Invitation (2022) Unrated 720p x264 Phun Psyz

seeders: 49
leechers: 16
updated:
Added by psyzbackup in Movies > HD

Download Fast Safe Anonymous
movies, software, shows...
Summary:

After the death of her mother, Evie is approached by an unknown cousin who invites her to a lavish wedding in the English countryside. Soon, she realizes a gothic conspiracy is afoot and must fight for survival as she uncovers twisted secrets in her family’s history.

Files

  • The Invitation (2022) Unrated 720p x264 Phun Psyz.mp4 (813.1 MB)

Description

www.imdb.com/title/tt12873562/

After the death of her mother, Evie is approached by an unknown cousin who invites her to a lavish wedding in the English countryside. Soon, she realizes a gothic conspiracy is afoot and must fight for survival as she uncovers twisted secrets in her family’s history.

Source: 4K HDR web



Format : MPEG-4
Format profile : Base Media / Version 2
Codec ID : mp42 (mp42/iso2/avc1/mp41)
File size : 813 MiB
Duration : 1 h 45 min
Overall bit rate mode : Variable
Overall bit rate : 1 074 kb/s

Video
ID : 1
Format : AVC
Format/Info : Advanced Video Codec
Format profile : [email protected]
Format settings : CABAC / 1 Ref Frames
Format settings, CABAC : Yes
Format settings, Reference : 1 frame
Codec ID : avc1
Codec ID/Info : Advanced Video Coding
Duration : 1 h 45 min
Bit rate : 956 kb/s
Width : 1 280 pixels
Height : 688 pixels
Display aspect ratio : 1.85:1
Frame rate mode : Variable
Frame rate : 23.976 (24000/1001) FPS
Color space : YUV
Chroma subsampling : 4:2:0
Bit depth : 8 bits
Scan type : Progressive
Bits/(Pixel*Frame) : 0.045
Stream size : 724 MiB (89%)
Color primaries : BT.709
Transfer characteristics : BT.709
Matrix coefficients : BT.709

Audio
ID : 2
Format : AAC LC
Format/Info : Advanced Audio Codec Low Complexity
Codec ID : mp4a-40-2
Duration : 1 h 45 min
Bit rate mode : Constant
Bit rate : 113 kb/s
Channel(s) : 2 channels
Channel layout : L R
Sampling rate : 48.0 kHz
Frame rate : 46.875 FPS (1024 SPF)
Compression mode : Lossy
Stream size : 85.2 MiB (10%)
Title : Stereo
Language : English
Default : Yes

Text
Language : English
Default : Yes
Forced : No
Language : English
Language : English
Language : French
Default : No
Forced : No

Related Torrents

torrent name size uploader age seed leech
5.2 GB prudence25 2
months
1199 242
796.8 MB TGxGoodies 2
months
860 253
1.4 GB TGxGoodies 2
months
344 87
5.2 GB TGxGoodies 2
months
118 34
2.7 GB realDMDJ 1
month
83 5


Download torrent
813.1 MB
seeders:49
leechers:16
The Invitation (2022) Unrated 720p x264 Phun Psyz


Trackers

tracker name
udp://ipv4.tracker.harry.lu:80/announce
udp://tracker.moeking.me:6969/announce
udp://tracker.opentrackr.org:1337/announce
udp://tracker.openbittorrent.com:6969
udp://explodie.org:6969/announce
udp://open.stealth.si:80/announce
http://ipv4announce.sktorrent.eu:6969/announce
udp://vibe.sleepyinternetfun.xyz:1738/announce
udp://tracker.torrent.eu.org:451/announce
http://tracker.bt4g.com:2095/announce
µTorrent compatible trackers list

Download torrent
813.1 MB
seeders:49
leechers:16
The Invitation (2022) Unrated 720p x264 Phun Psyz


Torrent hash: 042FBBEC4142CF3FC5A24BAC9DC37445695F2358