The.Lost.City.2022.1080p.AMZN.WEBRip.DDP5.1.x264-CM

seeders: 4282
leechers: 965
updated:
Added by TheMorozko in Movies > HD

Download Fast Safe Anonymous
movies, software, shows...
Summary:

Follows a reclusive romance novelist who was sure nothing could be worse than getting stuck on a book tour with her cover model, until a kidnapping attempt sweeps them both into a cutthroat jungle adventure, proving life can be so much stranger, and more romantic, than any of her paperback fictions.

Files

The.Lost.City.2022.1080p.AMZN.WEBRip.DDP5.1.x264-CM
  • RARBG.txt (0.0 KB)
  • The.Lost.City.2022.1080p.AMZN.WEB-DL.DDP5.1.H264-CM.mkv (5.6 GB)

Description

Screens... (click to enlarge):








Infolink -> https://www.imdb.com/title/tt13320622/

Mediainfo

Quote:

Video
ID : 1
Format : AVC
Format/Info : Advanced Video Codec
Format profile : [email protected]
Format settings : CABAC / 4 Ref Frames
Format settings, CABAC : Yes
Format settings, Reference frames : 4 frames
Codec ID : V_MPEG4/ISO/AVC
Duration : 1 h 51 min
Bit rate mode : Constant
Bit rate : 6 486 kb/s
Nominal bit rate : 10 000 kb/s
Width : 1 920 pixels
Height : 1 080 pixels
Display aspect ratio : 16:9
Frame rate mode : Constant
Frame rate : 23.976 (24000/1001) FPS
Color space : YUV
Chroma subsampling : 4:2:0
Bit depth : 8 bits
Scan type : Progressive
Bits/(Pixel*Frame) : 0.130
Stream size : 5.07 GiB (91%)
Language : English
Default : Yes
Forced : No
Color range : Limited
Color primaries : BT.709
Transfer characteristics : BT.709
Matrix coefficients : BT.709

Audio
ID : 2
Format : E-AC-3
Format/Info : Enhanced AC-3
Commercial name : Dolby Digital Plus
Codec ID : A_EAC3
Duration : 1 h 51 min
Bit rate mode : Constant
Bit rate : 640 kb/s
Channel(s) : 6 channels
Channel layout : L R C LFE Ls Rs
Sampling rate : 48.0 kHz
Frame rate : 31.250 FPS (1536 SPF)
Compression mode : Lossy
Stream size : 512 MiB (9%)
Language : English
Service kind : Complete Main
Default : Yes
Forced : No

Text #1
ID : 3
Format : UTF-8
Codec ID : S_TEXT/UTF8
Codec ID/Info : UTF-8 Plain Text
Duration : 1 h 45 min
Bit rate : 85 b/s
Count of elements : 1908
Stream size : 65.6 KiB (0%)
Title : SDH
Language : English
Default : No
Forced : No

Text #2
ID : 4
Format : UTF-8
Codec ID : S_TEXT/UTF8
Codec ID/Info : UTF-8 Plain Text
Duration : 1 h 45 min
Bit rate : 80 b/s
Count of elements : 1781
Stream size : 61.7 KiB (0%)
Language : English
Default : No
Forced : No

Related Torrents

torrent name size uploader age seed leech
2.1 GB TheMorozko 6
days
2729 990
1.7 GB TheMorozko 6
days
2540 502
797.1 MB TGxGoodies 7
days
2505 1350
1.4 GB TGxGoodies 7
days
1636 436
5.6 GB TGxGoodies 7
days
881 161


Download torrent
5.6 GB
seeders:4282
leechers:965
The.Lost.City.2022.1080p.AMZN.WEBRip.DDP5.1.x264-CM


Trackers

tracker name
http://tracker.trackerfix.com:80/announce
udp://9.rarbg.me:2790/announce
udp://9.rarbg.to:2750/announce
udp://tracker.fatkhoala.org:13740/announce
udp://tracker.thinelephant.org:12730/announce
µTorrent compatible trackers list

Download torrent
5.6 GB
seeders:4282
leechers:965
The.Lost.City.2022.1080p.AMZN.WEBRip.DDP5.1.x264-CM


Torrent hash: ED5E6720D3D26DAFCD0FF9FCEFDE8E50B618A6AA