The.Titan.2018.1080p.NF.WEBRip.DD5.1.x264-NTG

seeders: 968
leechers: 412
updated:
Added by SeekNDstroy in Movies > HD

Download Fast Safe Anonymous
movies, software, shows...
Summary:

A military family takes part in a ground-breaking experiment of genetic evolution and space exploration.

Files

The.Titan.2018.1080p.NF.WEBRip.DD5.1.x264-NTG
  • RARBG.txt (0.0 KB)
  • The.Titan.2018.1080p.NF.WEB-DL.DD5.1.x264-NTG.mkv (2.8 GB)

Description



Hotshot Air Force pilot| Rick Janssen (Sam Worthington)| is chosen for a military experiment that will create a human being capable of surviving the harsh environments of Saturn's moon| TITAN. The experiment is successful| turning Rick into a super-human| but it also creates deadly side-effects which threatens the life of Rick| his wife and family| and possibly humanity itself.

IMDB Rating: 6.5/10 from 122 users Updated : 2018-03-30
Genres: Sci-Fi
Actors: Sam Worthington , Taylor Schilling , Tom Wilkinson , Agyness Deyn , Nathalie Emmanuel , Corey Johnson , Aleksandar Jovanovic , Aaron Heffernan , Nathalie Poza ,
Steven Cree , Diego Boneta , Alex Lanipekun , Noah Jupe , Naomi Battrick , Ben Aldridge
Director: Lennart Ruff

Video
ID : 1
Format : AVC
Format/Info : Advanced Video Codec
Format profile : [email protected]
Format settings : CABAC / 3 Ref Frames
Format settings, CABAC : Yes
Format settings, ReFrames : 3 frames
Codec ID : V_MPEG4/ISO/AVC
Duration : 1 h 37 min
Bit rate mode : Variable
Bit rate : 3 830 kb/s
Maximum bit rate : 5 745 kb/s
Width : 1 920 pixels
Height : 1 080 pixels
Display aspect ratio : 16:9
Frame rate mode : Constant
Frame rate : 24.000 FPS
Color space : YUV
Chroma subsampling : 4:2:0
Bit depth : 8 bits
Scan type : Progressive
Bits/(Pixel*Frame) : 0.077
Stream size : 2.58 GiB (91%)
Writing library : x264 core 148 r2714 2daf636
Encoding settings : cabac=1 / ref=3 / deblock=1:0:0 / analyse=0x1:0x111 / me=umh / subme=10 / psy=1 / psy_rd=1.00:0.00 / mixed_ref=1 / me_range=24 / chroma_me=1 / trellis=2 / 8x8dct=0 / cqm=0 / deadzone=21,11 / fast_pskip=1 / chroma_qp_offset=-2 / threads=8 / lookahead_threads=1 / sliced_threads=0 / nr=0 / decimate=1 / interlaced=0 / bluray_compat=0 / stitchable=1 / constrained_intra=0 / bframes=2 / b_pyramid=0 / b_adapt=2 / b_bias=0 / direct=3 / weightb=1 / open_gop=0 / weightp=2 / keyint=48 / keyint_min=25 / scenecut=0 / intra_refresh=0 / rc_lookahead=48 / rc=2pass / mbtree=1 / bitrate=3830 / ratetol=1.0 / qcomp=0.50 / qpmin=6 / qpmax=51 / qpstep=4 / cplxblur=20.0 / qblur=0.5 / vbv_maxrate=5745 / vbv_bufsize=7660 / nal_hrd=vbr / filler=0 / ip_ratio=1.40 / aq=1:1.00
Default : Yes
Forced : No

Audio
ID : 2
Format : AC-3
Format/Info : Audio Coding 3
Codec ID : A_AC3
Duration : 1 h 37 min
Bit rate mode : Constant
Bit rate : 384 kb/s
Channel(s) : 6 channels
Channel positions : Front: L C R, Side: L R, LFE
Sampling rate : 48.0 kHz
Frame rate : 31.250 FPS (1536 SPF)
Bit depth : 16 bits
Compression mode : Lossy
Stream size : 268 MiB (9%)
Title : English
Language : English
Service kind : Complete Main
Default : Yes
Forced : No

Text #1
ID : 3
Format : UTF-8
Codec ID : S_TEXT/UTF8
Codec ID/Info : UTF-8 Plain Text
Duration : 1 h 27 min
Bit rate : 31 b/s
Count of elements : 632
Stream size : 20.0 KiB (0%)
Language : English
Default : Yes
Forced : No

Text #2
ID : 4
Format : UTF-8
Codec ID : S_TEXT/UTF8
Codec ID/Info : UTF-8 Plain Text
Duration : 1 h 28 min
Bit rate : 34 b/s
Count of elements : 715
Stream size : 22.2 KiB (0%)
Title : SDH
Language : English
Default : No
Forced : No

Text #3
ID : 5
Format : UTF-8
Codec ID : S_TEXT/UTF8
Codec ID/Info : UTF-8 Plain Text
Duration : 1 h 28 min
Bit rate : 29 b/s
Count of elements : 589
Stream size : 19.4 KiB (0%)
Language : Spanish
Default : No
Forced : No

Text #4
ID : 6
Format : UTF-8
Codec ID : S_TEXT/UTF8
Codec ID/Info : UTF-8 Plain Text
Duration : 1 h 28 min
Bit rate : 29 b/s
Count of elements : 575
Stream size : 19.1 KiB (0%)
Language : French
Default : No
Forced : No

Text #5
ID : 7
Format : UTF-8
Codec ID : S_TEXT/UTF8
Codec ID/Info : UTF-8 Plain Text
Duration : 1 h 28 min
Bit rate : 28 b/s
Count of elements : 572
Stream size : 18.6 KiB (0%)
Language : Italian
Default : No
Forced : No

Text #6
ID : 8
Format : UTF-8
Codec ID : S_TEXT/UTF8
Codec ID/Info : UTF-8 Plain Text
Duration : 1 h 28 min
Bit rate : 25 b/s
Count of elements : 608
Stream size : 16.6 KiB (0%)
Language : Japanese
Default : No
Forced : No

Text #7
ID : 9
Format : UTF-8
Codec ID : S_TEXT/UTF8
Codec ID/Info : UTF-8 Plain Text
Duration : 1 h 28 min
Bit rate : 26 b/s
Count of elements : 547
Stream size : 17.3 KiB (0%)
Language : Dutch
Default : No
Forced : No

Text #8
ID : 10
Format : UTF-8
Codec ID : S_TEXT/UTF8
Codec ID/Info : UTF-8 Plain Text
Duration : 1 h 28 min
Bit rate : 28 b/s
Count of elements : 590
Stream size : 18.2 KiB (0%)
Language : Polish
Default : No
Forced : No

Text #9
ID : 11
Format : UTF-8
Codec ID : S_TEXT/UTF8
Codec ID/Info : UTF-8 Plain Text
Duration : 1 h 28 min
Bit rate : 28 b/s
Count of elements : 582
Stream size : 18.6 KiB (0%)
Title : Brazilian
Language : Portuguese
Default : No
Forced : No

Text #10
ID : 12
Format : UTF-8
Codec ID : S_TEXT/UTF8
Codec ID/Info : UTF-8 Plain Text
Duration : 1 h 28 min
Bit rate : 28 b/s
Count of elements : 581
Stream size : 18.2 KiB (0%)
Language : Romanian
Default : No
Forced : No


Related Torrents

torrent name size uploader age seed leech
845.6 MB YTSAGx 1
year
3356 1472
1.6 GB YTSAGx 1
year
2186 779
1.6 GB YTSAGx 1
year
938 183
851.6 MB YTSAGx 1
year
862 261
1.8 GB robbyrs 1
year
540 184


Download torrent
2.8 GB
seeders:968
leechers:412
The.Titan.2018.1080p.NF.WEBRip.DD5.1.x264-NTG


Trackers

tracker name
http://tracker.trackerfix.com:80/announce
udp://9.rarbg.me:2710/announce
udp://9.rarbg.to:2710/announce
µTorrent compatible trackers list

Download torrent
2.8 GB
seeders:968
leechers:412
The.Titan.2018.1080p.NF.WEBRip.DD5.1.x264-NTG


Torrent hash: 2B0F3FD9ECC133863639F84ADBCA5A5EA7E89705