Thor (2011)Mp-4 x264 1080p AAC[DSD]

seeders: 32
leechers: 3
updated:
Added by dascuba1337 in Movies > HD

Download Fast Safe Anonymous
movies, software, shows...
Summary:

Against his father Odin's will, The Mighty Thor -a powerful but arrogant warrior god -recklessly reignites an ancient war. Thor is cast down to Earth and forced to live among humans as punishment. Once here, Thor learns what it takes to be a true hero when the most dangerous villain of his world sends the darkest forces of Asgard to invade Earth.

Files

  • THOR.Title800.mp4 (1.8 GB)

Description


Loading to Seedbox!!!





Thor (2011)
1080p Blu-Ray Rip
Hash Code:
3F25F64E5D6D7E32F2FE27513C46F22E85858F94












Tap on image for IMDb Info for this film

General
Complete name                            : THOR.Title800.mp4
Format                                   : MPEG-4
Format profile                           : Base Media / Version 2
Codec ID                                 : mp42 (mp42/isom/avc1)
File size                                : 1.84 GiB
Duration                                 : 1 h 54 min
Overall bit rate mode                    : Variable
Overall bit rate                         : 2 295 kb/s
Movie name                               : Thor: Ragnarok
Performer                                : Taika Waititi
Performer/Sorted by                      : Taika Waititi
Genre                                    : Action & Adventure & Comedy & Fantasy
Description                              : Thor is imprisoned on the other side of the universe and finds himself in a race against time to get back to Asgard to stop Ragnarok, the destruction of his home-world and the end of Asgardian civilization, at the hands of an all-powerful new threat, the ruthless Hela.
Recorded date                            : 2020
Encoded date                             : UTC 2020-01-24 23:35:49
Tagged date                              : UTC 2020-01-25 00:27:20
Writing application                      : DVDFab 11.0.6.8
Cover                                    : Yes
Title/Sort                               : Thor: Ragnarok
LongDescription                          : Thor is imprisoned on the other side of the universe and finds himself in a race against time to get back to Asgard to stop Ragnarok, the destruction of his home-world and the end of Asgardian civilization, at the hands of an all-powerful new threat, the ruthless Hela.

Video
ID                                       : 1
Format                                   : AVC
Format/Info                              : Advanced Video Codec
Format profile                           : [email protected]
Format settings                          : CABAC / 2 Ref Frames
Format settings, CABAC                   : Yes
Format settings, RefFrames               : 2 frames
Format settings, GOP                     : M=1, N=24
Codec ID                                 : avc1
Codec ID/Info                            : Advanced Video Coding
Duration                                 : 1 h 54 min
Bit rate mode                            : Variable
Bit rate                                 : 1 831 kb/s
Maximum bit rate                         : 2 818 kb/s
Width                                    : 1 920 pixels
Height                                   : 816 pixels
Display aspect ratio                     : 2.35:1
Frame rate mode                          : Constant
Frame rate                               : 23.976 (24000/1001) FPS
Color space                              : YUV
Chroma subsampling                       : 4:2:0
Bit depth                                : 8 bits
Scan type                                : Progressive
Bits/(Pixel*Frame)                       : 0.049
Stream size                              : 1.47 GiB (80%)
Encoded date                             : UTC 2020-01-24 23:35:49
Tagged date                              : UTC 2020-01-25 00:27:20
Color primaries                          : BT.709
Transfer characteristics                 : BT.709
Matrix coefficients                      : BT.709
Menus                                    : 5

Audio
ID                                       : 2
Format                                   : AAC
Format/Info                              : Advanced Audio Codec
Format profile                           : LC
Codec ID                                 : mp4a-40-2
Duration                                 : 1 h 54 min
Bit rate mode                            : Variable
Bit rate                                 : 452 kb/s
Channel(s)                               : 6 channels
Channel positions                        : Front: L C R, Side: L R, LFE
Sampling rate                            : 48.0 kHz
Frame rate                               : 46.875 FPS (1024 SPF)
Compression mode                         : Lossy
Stream size                              : 368 MiB (20%)
Title                                    : English (aac 5.1)
Language                                 : English
Default                                  : Yes
Alternate group                          : 1
Encoded date                             : UTC 2020-01-24 23:35:49
Tagged date                              : UTC 2020-01-25 00:27:20

Text #1
ID                                       : 3
Format                                   : VobSub
Codec ID                                 : mp4s-E0
Codec ID/Info                            : The same subtitle format used on DVDs
Duration                                 : 1 h 54 min
Bit rate mode                            : Variable
Bit rate                                 : 6 442 b/s
Maximum bit rate                         : 4 249 Mb/s
Stream size                              : 5.28 MiB (0%)
Language                                 : English
Default                                  : Yes
Forced                                   : No
Alternate group                          : 2
Encoded date                             : UTC 2020-01-24 23:35:49
Tagged date                              : UTC 2020-01-25 00:27:13

Text #2
ID                                       : 4
Format                                   : VobSub
Codec ID                                 : mp4s-E0
Codec ID/Info                            : The same subtitle format used on DVDs
Duration                                 : 1 h 54 min
Bit rate mode                            : Variable
Bit rate                                 : 6 968 b/s
Maximum bit rate                         : 4 249 Mb/s
Stream size                              : 5.71 MiB (0%)
Language                                 : English
Default                                  : No
Forced                                   : No
Alternate group                          : 2
Encoded date                             : UTC 2020-01-24 23:35:49
Tagged date                              : UTC 2020-01-25 00:27:13


B)

Related Torrents

torrent name size uploader age seed leech
1.6 GB YIFY 7
years
755 278
704 MB YIFY 8
years
683 179
1.7 GB YIFY 7
years
99 26
4.9 GB QxR 1
year
55 53
1.3 GB xdesiarsenal 5
years
31 9


Download torrent
1.8 GB
seeders:32
leechers:3
Thor (2011)Mp-4 x264 1080p AAC[DSD]


Trackers

tracker name
udp://tracker.openbittorrent.com:80/announce
udp://tracker.opentrackr.org:1337/announce
udp://tracker.coppersurfer.tk:6969/announce
udp://9.rarbg.to:2710/announce
µTorrent compatible trackers list

Download torrent
1.8 GB
seeders:32
leechers:3
Thor (2011)Mp-4 x264 1080p AAC[DSD]


Torrent hash: 3F25F64E5D6D7E32F2FE27513C46F22E85858F94