Through.the.Glass.Darkly.2020.1080p.WEBRip.DD5.1.x264-NOGRP

seeders: 32
leechers: 7
updated:
Added by TheMorozko in Movies > HD

Download Fast Safe Anonymous
movies, software, shows...
Summary:

A year after Charlie's daughter disappears, another girl from Elrod, Georgia goes missing. Convinced there is a connection, Charlie draws suspicion and contempt from local law enforcement and townspeople as she stops at nothing to expose its most devastating and darkest secret.

Files

Through.the.Glass.Darkly.2021.1080p.WEBRip.DD5.1.x264-NOGRP
  • RARBG.txt (0.0 KB)
  • Through.the.Glass.Darkly.2021.1080p.WEBRip.DD5.1.x264-NOGRP.mkv (5.1 GB)

Description

Screens... (click to enlarge):








Infolink -> https://www.imdb.com/title/tt5585272/

Mediainfo

Quote:

Video
ID : 1
Format : AVC
Format/Info : Advanced Video Codec
Format profile : [email protected]
Format settings : CABAC / 5 Ref Frames
Format settings, CABAC : Yes
Format settings, Reference frames : 5 frames
Codec ID : V_MPEG4/ISO/AVC
Duration : 1 h 43 min
Bit rate : 6 632 kb/s
Width : 1 912 pixels
Height : 796 pixels
Display aspect ratio : 2.40:1
Frame rate mode : Constant
Frame rate : 23.976 (24000/1001) FPS
Color space : YUV
Chroma subsampling : 4:2:0
Bit depth : 8 bits
Scan type : Progressive
Bits/(Pixel*Frame) : 0.182
Stream size : 4.80 GiB (94%)
Language : English
Default : Yes
Forced : No
Color range : Limited
Color primaries : BT.709
Transfer characteristics : BT.709
Matrix coefficients : BT.709

Audio
ID : 2
Format : AC-3
Format/Info : Audio Coding 3
Commercial name : Dolby Digital
Codec ID : A_AC3
Duration : 1 h 43 min
Bit rate mode : Constant
Bit rate : 384 kb/s
Channel(s) : 6 channels
Channel layout : L R C LFE Ls Rs
Sampling rate : 48.0 kHz
Frame rate : 31.250 FPS (1536 SPF)
Compression mode : Lossy
Stream size : 284 MiB (5%)
Title : English
Language : English
Service kind : Complete Main
Default : Yes
Forced : No

Text
ID : 3
Format : UTF-8
Codec ID : S_TEXT/UTF8
Codec ID/Info : UTF-8 Plain Text
Duration : 1 h 38 min
Bit rate : 58 b/s
Count of elements : 1476
Stream size : 42.3 KiB (0%)
Language : English
Default : Yes
Forced : No

Related Torrents

torrent name size uploader age seed leech
796.8 MB TGxGoodies 4
months
125 25
2 GB Cristie 4
months
35 4
1.4 GB TGxGoodies 4
months
26 7
1.9 GB mazemaze16 4
months
14 1
910.5 MB mazemaze16 4
months
13 2


Download torrent
5.1 GB
seeders:32
leechers:7
Through.the.Glass.Darkly.2020.1080p.WEBRip.DD5.1.x264-NOGRP


Trackers

tracker name
http://tracker.trackerfix.com:80/announce
udp://9.rarbg.me:2840/announce
udp://9.rarbg.to:2930/announce
udp://tracker.thinelephant.org:12790/announce
udp://tracker.slowcheetah.org:14740/announce
µTorrent compatible trackers list

Download torrent
5.1 GB
seeders:32
leechers:7
Through.the.Glass.Darkly.2020.1080p.WEBRip.DD5.1.x264-NOGRP


Torrent hash: 8336DB33A007106CC9F40EE741F26A0F6CB811DC