Training Day (2001) (1080p x265 HEVC 10bit BluRay EAC3 5.1) [Prof]

seeders: 19
leechers: 5
updated:
Added by Prof in Movies > HEVC/x265

Download Fast Safe Anonymous
movies, software, shows...
Summary:

On his first day on the job as a narcotics officer, a rookie cop works with a rogue detective who isn't what he appears.

Files

  • Training Day (2001).mkv (6.1 GB)

Description







General
Format : Matroska
Format version : Version 4
File size : 6.08 GiB
Duration : 2 h 2 min
Overall bit rate : 7 128 kb/s
Encoded date : UTC 2021-07-05 10:21:28
Writing application : mkvmerge v53.0.0 ('Fool's Gold') 64-bit
Writing library : libebml v1.4.1 + libmatroska v1.6.2

Video
ID : 1
Format : HEVC
Format/Info : High Efficiency Video Coding
Format profile : Main [email protected]@Main
Codec ID : V_MPEGH/ISO/HEVC
Duration : 2 h 2 min
Bit rate : 6 226 kb/s
Width : 1 920 pixels
Height : 812 pixels
Display aspect ratio : 2.35:1
Frame rate mode : Constant
Frame rate : 23.976 (24000/1001) FPS
Color space : YUV
Chroma subsampling : 4:2:0
Bit depth : 10 bits
Bits/(Pixel*Frame) : 0.167
Stream size : 5.31 GiB (87%)
Writing library : x265 3.5_RC1+2+23-bd060601e:[Windows][GCC 10.2.0][64 bit] 10bit
Encoding settings : cpuid=1111039 / frame-threads=4 / numa-pools=24 / wpp / no-pmode / no-pme / no-psnr / no-ssim / log-level=2 / input-csp=1 / input-res=1920x812 / interlace=0 / total-frames=175570 / level-idc=0 / high-tier=1 / uhd-bd=0 / ref=5 / no-allow-non-conformance / no-repeat-headers / annexb / no-aud / no-hrd / info / hash=0 / no-temporal-layers / open-gop / min-keyint=23 / keyint=250 / gop-lookahead=0 / bframes=8 / b-adapt=2 / b-pyramid / bframe-bias=0 / rc-lookahead=40 / lookahead-slices=1 / scenecut=40 / hist-scenecut=0 / radl=0 / no-splice / no-intra-refresh / ctu=64 / min-cu-size=8 / rect / amp / max-tu-size=32 / tu-inter-depth=3 / tu-intra-depth=3 / limit-tu=4 / rdoq-level=2 / dynamic-rd=0.00 / no-ssim-rd / signhide / no-tskip / nr-intra=0 / nr-inter=0 / no-constrained-intra / strong-intra-smoothing / max-merge=4 / limit-refs=1 / limit-modes / me=3 / subme=4 / merange=57 / temporal-mvp / no-frame-dup / no-hme / weightp / weightb / no-analyze-src-pics / deblock=0:0 / sao / no-sao-non-deblock / rd=6 / selective-sao=4 / no-early-skip / rskip / no-fast-intra / no-tskip-fast / no-cu-lossless / b-intra / no-splitrd-skip / rdpenalty=0 / psy-rd=2.00 / psy-rdoq=1.00 / no-rd-refine / no-lossless / cbqpoffs=0 / crqpoffs=0 / rc=crf / crf=18.0 / qcomp=0.60 / qpstep=4 / stats-write=0 / stats-read=0 / ipratio=1.40 / pbratio=1.30 / aq-mode=3 / aq-strength=1.00 / cutree / zone-count=0 / no-strict-cbr / qg-size=32 / no-rc-grain / qpmax=69 / qpmin=0 / no-const-vbv / sar=0 / overscan=0 / videoformat=5 / range=0 / colorprim=2 / transfer=2 / colormatrix=2 / chromaloc=0 / display-window=0 / cll=0,0 / min-luma=0 / max-luma=1023 / log2-max-poc-lsb=8 / vui-timing-info / vui-hrd-info / slices=1 / no-opt-qp-pps / no-opt-ref-list-length-pps / no-multi-pass-opt-rps / scenecut-bias=0.05 / hist-threshold=0.03 / no-opt-cu-delta-qp / no-aq-motion / no-hdr10 / no-hdr10-opt / no-dhdr10-opt / no-idr-recovery-sei / analysis-reuse-level=0 / analysis-save-reuse-level=0 / analysis-load-reuse-level=0 / scale-factor=0 / refine-intra=0 / refine-inter=0 / refine-mv=1 / refine-ctu-distortion=0 / no-limit-sao / ctu-info=0 / no-lowpass-dct / refine-analysis-type=0 / copy-pic=1 / max-ausize-factor=1.0 / no-dynamic-refine / no-single-sei / no-hevc-aq / no-svt / no-field / qp-adaptation-range=1.00 / scenecut-aware-qp=0conformance-window-offsets / right=0 / bottom=0 / decoder-max-rate=0 / no-vbv-live-multi-pass
Default : Yes
Forced : No

Audio #1
ID : 2
Format : E-AC-3
Format/Info : Enhanced AC-3
Commercial name : Dolby Digital Plus
Codec ID : A_EAC3
Duration : 2 h 2 min
Bit rate mode : Constant
Bit rate : 640 kb/s
Channel(s) : 6 channels
Channel layout : L R C LFE Ls Rs
Sampling rate : 48.0 kHz
Frame rate : 62.500 FPS (768 SPF)
Compression mode : Lossy
Stream size : 559 MiB (9%)
Language : English
Service kind : Complete Main
Default : Yes
Forced : No

Audio #2
ID : 3
Format : E-AC-3
Format/Info : Enhanced AC-3
Commercial name : Dolby Digital Plus
Format settings : Dolby Surround
Codec ID : A_EAC3
Duration : 2 h 2 min
Bit rate mode : Constant
Bit rate : 192 kb/s
Channel(s) : 2 channels
Channel layout : L R
Sampling rate : 48.0 kHz
Frame rate : 31.250 FPS (1536 SPF)
Compression mode : Lossy
Stream size : 168 MiB (3%)
Title : Commentary by director Antoine Fuqua
Language : English
Service kind : Complete Main
Default : No
Forced : No

Text #1
ID : 4
Format : PGS
Muxing mode : zlib
Codec ID : S_HDMV/PGS
Codec ID/Info : Picture based subtitle format used on BDs/HD-DVDs
Duration : 2 h 0 min
Bit rate : 43.8 kb/s
Count of elements : 2736
Stream size : 37.8 MiB (1%)
Language : English
Default : No
Forced : No

Text #2
ID : 5
Format : PGS
Muxing mode : zlib
Codec ID : S_HDMV/PGS
Codec ID/Info : Picture based subtitle format used on BDs/HD-DVDs
Duration : 2 h 0 min
Bit rate : 46.0 kb/s
Count of elements : 2842
Stream size : 39.8 MiB (1%)
Title : SDH
Language : English
Default : No
Forced : No

Text #3
ID : 6
Format : PGS
Muxing mode : zlib
Codec ID : S_HDMV/PGS
Codec ID/Info : Picture based subtitle format used on BDs/HD-DVDs
Duration : 2 h 0 min
Bit rate : 38.8 kb/s
Count of elements : 2958
Stream size : 33.5 MiB (1%)
Language : French
Default : No
Forced : No

Text #4
ID : 7
Format : PGS
Muxing mode : zlib
Codec ID : S_HDMV/PGS
Codec ID/Info : Picture based subtitle format used on BDs/HD-DVDs
Duration : 2 h 0 min
Bit rate : 58.8 kb/s
Count of elements : 2846
Stream size : 50.8 MiB (1%)
Title : SDH
Language : German
Default : No
Forced : No

Text #5
ID : 8
Format : PGS
Muxing mode : zlib
Codec ID : S_HDMV/PGS
Codec ID/Info : Picture based subtitle format used on BDs/HD-DVDs
Duration : 2 h 1 min
Bit rate : 47.2 kb/s
Count of elements : 2694
Stream size : 40.9 MiB (1%)
Title : Latin American
Language : Spanish
Default : No
Forced : No

Menu
00:00:00.000 : en:It's Today
00:03:53.516 : en:Tell Me a Story
00:08:02.349 : en:Leave Family Out
00:12:20.072 : en:Drug Roust
00:15:37.386 : en:Narcotics in His Blood
00:20:35.935 : en:Joking with Roger
00:25:42.291 : en:Alley Incident
00:32:13.932 : en:It Takes a Wolf
00:36:12.671 : en:Collaring Sammy
00:40:41.056 : en:Sandman's Wife
00:45:20.468 : en:Firing Line
00:47:15.199 : en:Wolf or Sheep?
00:49:23.994 : en:Mother and Son
00:55:04.251 : en:Lapd's Finest
00:59:59.763 : en:The Unit Punches In
01:02:56.273 : en:Roger Out of His Misery
01:09:56.860 : en:The Scenario
01:15:08.254 : en:This Is the Game
01:20:29.692 : en:Five-Card Draw
01:24:17.385 : en:The Drop on the Cop
01:29:26.278 : en:Smiley's Cousin
01:33:27.602 : en:"I'm Here for Alonzo"
01:37:21.336 : en:Preserving Life
01:41:25.580 : en:Rooftop Battle
01:45:00.211 : en:What Jake Learned Today
01:48:44.185 : en:"You Can't Kill Me"
01:52:39.953 : en:Going Home
01:55:43.136 : en:End Credits (W.O.L.V.E.S., American Dream, #1)

Source:

Remux 16.2 GB

Coming Soon:

Tommy Boy
This is the End
There's Something About Mary
Avengers: Endgame 4k
Watchmen DC
Watchmen UC 4k
Before the Devil Knows You're Dead
Beverly Hills Ninja
Big Daddy
Billy Madison
Batman 4k
Centurion
Rick and Morty S01
Arrested Development S03
Mobile Suit Gundam Unicorn

Related Torrents

torrent name size uploader age seed leech
799.6 MB YIFY 9
years
120 13
5.6 GB QxR 1
year
95 35
1.6 GB YIFY 9
years
77 4
985.8 MB mazemaze16 1
year
53 9
4.8 GB Prof 2
years
28 4


Download torrent
6.1 GB
seeders:19
leechers:5
Training Day (2001) (1080p x265 HEVC 10bit BluRay EAC3 5.1) [Prof]


Trackers

tracker name
udp://tracker.opentrackr.org:1337/announce
udp://tracker.coppersurfer.tk:6969/announce
udp://tracker.torrent.eu.org:451/announce
udp://tracker.tiny-vps.com:6969/announce
udp://open.stealth.si:80/announce
udp://tracker.internetwarriors.net:1337/announce
µTorrent compatible trackers list

Download torrent
6.1 GB
seeders:19
leechers:5
Training Day (2001) (1080p x265 HEVC 10bit BluRay EAC3 5.1) [Prof]


Torrent hash: 04E89AA5AA4DF17A627196C6719948654CDD4843