Vacation.Friends.2021.1080p.WEBRip.x265-RARBG

seeders: 918
leechers: 141
updated:

Download Fast Safe Anonymous
movies, software, shows...
Summary:

When a straight-laced couple that has fun with a rowdy couple on vacation in Mexico return to the States, they discover that the crazy couple they met in Mexico followed them back home and decide to play tricks on them.

Files

Vacation.Friends.2021.1080p.WEBRip.x265-RARBG
  • RARBG.txt (0.0 KB)
  • RARBG_DO_NOT_MIRROR.exe (0.1 KB)
  • Subs
    • 10_Korean.srt (138.1 KB)
    • 11_Bokmal.srt (114.7 KB)
    • 12_Dutch.srt (106.3 KB)
    • 13_Polish.srt (119.4 KB)
    • 14_Portuguese.srt (123.1 KB)
    • 15_Portuguese.srt (119.8 KB)
    • 16_Swedish.srt (131.4 KB)
    • 17_Chinese.srt (131.3 KB)
    • 18_Chinese.srt (124.5 KB)
    • 2_English.srt (152.5 KB)
    • 3_Danish.srt (130.1 KB)
    • 4_German.srt (123.3 KB)
    • 5_Spanish.srt (120.3 KB)
    • 6_Spanish.srt (120.4 KB)
    • 7_Finnish.srt (113.7 KB)
    • 8_French.srt (125.5 KB)
    • 9_Italian.srt (119.0 KB)
  • Vacation.Friends.2021.1080p.WEBRip.x265-RARBG.mp4 (1.6 GB)

Description

Screens... (click to enlarge):








Infolink -> https://www.imdb.com/title/tt3626476/

Mediainfo

Quote:

Video
ID : 1
Format : HEVC
Format/Info : High Efficiency Video Coding
Format profile : Main [email protected]@Main
Codec ID : hev1
Codec ID/Info : High Efficiency Video Coding
Duration : 1 h 43 min
Bit rate : 1 999 kb/s
Width : 1 920 pixels
Height : 960 pixels
Display aspect ratio : 2.000
Frame rate mode : Constant
Frame rate : 24.000 FPS
Color space : YUV
Chroma subsampling : 4:2:0
Bit depth : 10 bits
Bits/(Pixel*Frame) : 0.045
Stream size : 1.45 GiB (90%)
Writing library : x265 3.3+4-rarbg-30eb4de83092:[Linux][GCC 8.3.1][64 bit] 10bit
Encoding settings : cpuid=1111039 / frame-threads=4 / wpp / no-pmode / no-pme / no-psnr / no-ssim / log-level=2 / input-csp=1 / input-res=1920x960 / interlace=0 / total-frames=0 / level-idc=0 / high-tier=1 / uhd-bd=0 / ref=4 / no-allow-non-conformance / no-repeat-headers / annexb / no-aud / no-hrd / info / hash=0 / no-temporal-layers / open-gop / min-keyint=24 / keyint=250 / gop-lookahead=0 / bframes=4 / b-adapt=2 / b-pyramid / bframe-bias=0 / rc-lookahead=25 / lookahead-slices=4 / scenecut=40 / hist-scenecut=0 / radl=0 / no-splice / no-intra-refresh / ctu=64 / min-cu-size=8 / rect / no-amp / max-tu-size=32 / tu-inter-depth=1 / tu-intra-depth=1 / limit-tu=0 / rdoq-level=2 / dynamic-rd=0.00 / no-ssim-rd / signhide / no-tskip / nr-intra=0 / nr-inter=0 / no-constrained-intra / strong-intra-smoothing / max-merge=3 / limit-refs=3 / limit-modes / me=3 / subme=3 / merange=57 / temporal-mvp / no-frame-dup / no-hme / weightp / no-weightb / no-analyze-src-pics / deblock=0:0 / no-sao / no-sao-non-deblock / rd=4 / selective-sao=0 / no-early-skip / rskip / no-fast-intra / no-tskip-fast / no-cu-lossless / no-b-intra / no-splitrd-skip / rdpenalty=0 / psy-rd=2.00 / psy-rdoq=1.00 / no-rd-refine / no-lossless / cbqpoffs=0 / crqpoffs=0 / rc=abr / bitrate=2000 / qcomp=0.60 / qpstep=4 / stats-write=0 / stats-read=2 / cplxblur=20.0 / qblur=0.5 / ipratio=1.40 / pbratio=1.30 / aq-mode=3 / aq-strength=1.00 / cutree / zone-count=0 / no-strict-cbr / qg-size=32 / no-rc-grain / qpmax=69 / qpmin=0 / no-const-vbv / sar=1 / overscan=0 / videoformat=5 / range=0 / colorprim=2 / transfer=2 / colormatrix=2 / chromaloc=0 / display-window=0 / cll=0,0 / min-luma=0 / max-luma=1023 / log2-max-poc-lsb=8 / vui-timing-info / vui-hrd-info / slices=1 / no-opt-qp-pps / no-opt-ref-list-length-pps / no-multi-pass-opt-rps / scenecut-bias=0.05 / hist-threshold=0.01 / no-opt-cu-delta-qp / no-aq-motion / no-hdr10 / no-hdr10-opt / no-dhdr10-opt / no-idr-recovery-sei / analysis-reuse-level=0 / analysis-save-reuse-level=0 / analysis-load-reuse-level=0 / scale-factor=0 / refine-intra=0 / refine-inter=0 / refine-mv=1 / refine-ctu-distortion=0 / no-limit-sao / ctu-info=0 / no-lowpass-dct / refine-analysis-type=0 / copy-pic=1 / max-ausize-factor=1.0 / no-dynamic-refine / no-single-sei / no-hevc-aq / no-svt / no-field / qp-adaptation-range=1.00 / no-scenecut-aware-qpconformance-window-offsets / right=0 / bottom=0
Encoded date : UTC 2021-08-27 11:50:20
Tagged date : UTC 2021-08-27 11:50:20
Codec configuration box : hvcC

Audio
ID : 2
Format : AAC LC
Format/Info : Advanced Audio Codec Low Complexity
Codec ID : mp4a-40-2
Duration : 1 h 43 min
Bit rate mode : Constant
Bit rate : 224 kb/s
Channel(s) : 6 channels
Channel layout : C L R Ls Rs LFE
Sampling rate : 48.0 kHz
Frame rate : 46.875 FPS (1024 SPF)
Compression mode : Lossy
Stream size : 166 MiB (10%)
Language : English
Default : Yes
Alternate group : 1
Encoded date : UTC 2021-08-27 11:50:20
Tagged date : UTC 2021-08-27 11:50:20

Related Torrents

torrent name size uploader age seed leech
3.5 GB TheMorozko 1
month
1983 258
797.2 MB TGxGoodies 1
month
1290 201
2 GB TheMorozko 1
month
1246 188
5 GB TheMorozko 1
month
426 63
2.8 GB TheMorozko 1
month
152 33


Download torrent
1.6 GB
seeders:918
leechers:141
Vacation.Friends.2021.1080p.WEBRip.x265-RARBG


Trackers

tracker name
http://tracker.trackerfix.com:80/announce
udp://9.rarbg.me:2740/announce
udp://9.rarbg.to:2850/announce
udp://tracker.tallpenguin.org:15750/announce
udp://tracker.thinelephant.org:12740/announce
µTorrent compatible trackers list

Download torrent
1.6 GB
seeders:918
leechers:141
Vacation.Friends.2021.1080p.WEBRip.x265-RARBG


Torrent hash: A92E40AEA8DB015F96AE6B783DD2039857378E08