Big Brother US S18E09 720p HDTV x264-BAJSKORV[rartv]

seeders: 46
leechers: 6
updated:
Added by z0n3212.56M in TV
Torrent verified. Downloaded 2,030 times.

DownloadFast Safe Anonymous
movies, software, shows...
  • View all Big Brother (US) episodes
  • Episode title: Road Kill (3)
  • Episode: S18E09
  • Air date: 10 July 2016
  • TVmaze link: Big Brother (US)
  • Original run: 05 July 2000 — Present
  • Summary:

    Contestants must compete against each other for a chance to win $500,000 in a house wired with cameras and microphones, capturing their every move for a TV and Internet audience.

    Written by Thhaque414.88K
Available in versions: 1080p720p480pHDTVWEBRipx265
Big Brother US S18E09 720p HDTV x264-BAJSKORV[rartv] (Size: 1.57 GB)
  rarbg.com.txt 34 bytes
  big.brother.us.s18e09.720p.hdtv.x264-bajskorv.mkv 1.57 GB
  big.brother.us.s18e09.720p.hdtv.x264-bajskorv.nfo 81 bytes

Description


https://rarbg.to
Big.Brother.US.S18E09.720p.HDTV.x264-BAJSKORV[rartv]

image
Screens :

image
Mediainfo :

Video
ID : 1
Format : AVC
Format/Info : Advanced Video Codec
Format profile : [email protected]
Format settings, CABAC : Yes
Format settings, ReFrames : 5 frames
Codec ID : V_MPEG4/ISO/AVC
Duration : 43mn 21s
Bit rate : 4 793 Kbps
Width : 1 280 pixels
Height : 720 pixels
Display aspect ratio : 16:9
Frame rate mode : Constant
Frame rate : 59.940 (60000/1001) fps
Color space : YUV
Chroma subsampling : 4:2:0
Bit depth : 8 bits
Scan type : Progressive
Bits/(Pixel*Frame) : 0.087
Stream size : 1.45 GiB (93%)
Writing library : x264 core 148 r2705 3f5ed56
Encoding settings : cabac=1 / ref=5 / deblock=1:0:0 / analyse=0x3:0x113 / me=umh / subme=8 / psy=1 / psy_rd=1.00:0.00 / mixed_ref=1 / me_range=16 / chroma_me=1 / trellis=1 / 8x8dct=1 / cqm=0 / deadzone=21,11 / fast_pskip=1 / chroma_qp_offset=-2 / threads=18 / lookahead_threads=4 / sliced_threads=0 / nr=0 / decimate=1 / interlaced=0 / bluray_compat=0 / constrained_intra=0 / bframes=5 / b_pyramid=2 / b_adapt=2 / b_bias=0 / direct=3 / weightb=1 / open_gop=0 / weightp=2 / keyint=250 / keyint_min=25 / scenecut=40 / intra_refresh=0 / rc_lookahead=50 / rc=crf / mbtree=1 / crf=20.0 / qcomp=0.60 / qpmin=0 / qpmax=69 / qpstep=4 / ip_ratio=1.40 / aq=1:1.00
Default : No
Forced : No

Audio
ID : 2
Format : AC-3
Format/Info : Audio Coding 3
Mode extension : CM (complete main)
Format settings, Endianness : Big
Codec ID : A_AC3
Duration : 43mn 21s
Bit rate mode : Constant
Bit rate : 384 Kbps
Channel(s) : 2 channels
Channel positions : Front: L R
Sampling rate : 48.0 KHz
Frame rate : 31.250 fps (1536 spf)
Compression mode : Lossy
Delay relative to video : -33ms
Stream size : 119 MiB (7%)
Default : Yes
Forced : No

Related Torrents

torrent name size files age seed leech

Sharing Widget


Download torrent
1.57 GB
seeders:57
leechers:4
Big Brother US S18E09 720p HDTV x264-BAJSKORV[rartv]



To share this torrent use the code below and insert it into comments, status messages, forum posts or your signature.

Torrent: Big Brother US S18E09 720p HDTV x264-BAJSKORV[rartv]

Trackers

tracker name
udp://tracker.openbittorrent.com:80/announce
udp://tracker.publicbt.com:80/announce
udp://tracker.coppersurfer.tk:6969/announce
udp://9.rarbg.me:2710/announce
udp://p4p.arenabg.com:1337/announce
http://tracker.trackerfix.com/announce
udp://9.rarbg.to:2710/announce
udp://tracker.opentrackr.org:1337/announce
µTorrent compatible trackers list

Locations

name
KickassTorrents
Torrent hash: 1D22AB67353ED989A818AA9BA1C319BDA83BD82F

All Comments

audio
9/10
video
9/10
please, leave only comments related to that torrent
Sign In

big thanks! but uploading the smaller file versions first would be faster for the end user ;)
audio: 9video: 9
Thanks copy looks good
audio: 10video: 10
thanks so much! really appreciated.

User Opinions

Zeus19.28K, Foodcoma2107258, Evits6840, obk885289, Chicoborn2892, mctiger352113, mattpetti1623, disneydreams1465, chillcutz895, Sashcat93726 ... And 11 more
Report a bug Open chat