Ray Donovan S04E02 720p HDTV x264-AVS[rartv]

seeders: 448
leechers: 14
updated:
Added by z0n3212.56M in TV
Torrent verified. Downloaded 23,107 times.

DownloadFast Safe Anonymous
movies, software, shows...
  • View all Ray Donovan episodes
  • Episode title: Marisol
  • Episode: S04E02
  • Air date: 03 July 2016
  • IMDb link: 2249007
  • TVmaze link: Ray Donovan
  • Original run: 30 June 2013 — Present
  • Summary:

    Ray Donovan, a professional "fixer" for the rich and famous in LA, can make anyone's problems disappear except those created by his own family.

    Written by Thhaque414.88K
Available in versions: 1080p720p480pHDTVWEBRipx264x265
Ray Donovan S04E02 720p HDTV x264-AVS[rartv] (Size: 982.58 MB)
  rarbg.com.txt 34 bytes
  Ray.Donovan.S04E02.720p.HDTV.x264-AVS.mkv 982.58 MB
  Ray.Donovan.S04E02.720p.HDTV.x264-AVS.nfo 59 bytes

Description


https://rarbg.to
Ray.Donovan.S04E02.720p.HDTV.x264-AVS[rartv]

image
Screens :

image
Mediainfo :

Video
ID : 1
Format : AVC
Format/Info : Advanced Video Codec
Format profile : [email protected]
Format settings, CABAC : Yes
Format settings, ReFrames : 5 frames
Codec ID : V_MPEG4/ISO/AVC
Duration : 53mn 14s
Bit rate : 2 145 Kbps
Width : 1 280 pixels
Height : 718 pixels
Display aspect ratio : 16:9
Frame rate mode : Constant
Frame rate : 23.976 (24000/1001) fps
Color space : YUV
Chroma subsampling : 4:2:0
Bit depth : 8 bits
Scan type : Progressive
Bits/(Pixel*Frame) : 0.097
Stream size : 817 MiB (83%)
Writing library : x264 core 148 r2694 3b70645
Encoding settings : cabac=1 / ref=5 / deblock=1:0:0 / analyse=0x3:0x113 / me=umh / subme=8 / psy=1 / psy_rd=1.00:0.00 / mixed_ref=1 / me_range=16 / chroma_me=1 / trellis=1 / 8x8dct=1 / cqm=0 / deadzone=21,11 / fast_pskip=1 / chroma_qp_offset=-2 / threads=22 / lookahead_threads=3 / sliced_threads=0 / nr=0 / decimate=1 / interlaced=0 / bluray_compat=0 / constrained_intra=0 / bframes=3 / b_pyramid=2 / b_adapt=2 / b_bias=0 / direct=3 / weightb=1 / open_gop=0 / weightp=2 / keyint=250 / keyint_min=23 / scenecut=40 / intra_refresh=0 / rc_lookahead=50 / rc=crf / mbtree=1 / crf=18.0 / qcomp=0.60 / qpmin=0 / qpmax=69 / qpstep=4 / ip_ratio=1.40 / aq=1:1.00
Default : Yes
Forced : No
Color range : Limited
Matrix coefficients : BT.709

Audio
ID : 2
Format : AC-3
Format/Info : Audio Coding 3
Mode extension : CM (complete main)
Format settings, Endianness : Big
Codec ID : A_AC3
Duration : 53mn 14s
Bit rate mode : Constant
Bit rate : 384 Kbps
Channel(s) : 6 channels
Channel positions : Front: L C R, Side: L R, LFE
Sampling rate : 48.0 KHz
Frame rate : 31.250 fps (1536 spf)
Compression mode : Lossy
Stream size : 146 MiB (15%)
Default : Yes
Forced : No

Related Torrents

torrent name size files age seed leech

Sharing Widget


Download torrent
982.58 MB
seeders:397
leechers:15
Ray Donovan S04E02 720p HDTV x264-AVS[rartv]



To share this torrent use the code below and insert it into comments, status messages, forum posts or your signature.

Torrent: Ray Donovan S04E02 720p HDTV x264-AVS[rartv]

Trackers

tracker name
udp://tracker.openbittorrent.com:80/announce
udp://tracker.publicbt.com:80/announce
udp://tracker.coppersurfer.tk:6969/announce
udp://9.rarbg.me:2710/announce
udp://p4p.arenabg.com:1337/announce
http://tracker.trackerfix.com/announce
udp://9.rarbg.to:2710/announce
udp://tracker.opentrackr.org:1337/announce
µTorrent compatible trackers list

Locations

name
KickassTorrents
Torrent hash: 2253E90C909BCDDBFD8E0F30ECAF756CBE2DE567

All Comments

audio
9/10
video
9/10
please, leave only comments related to that torrent
Sign In

audio: 8video: 9
Thanks z0n321
audio: 9video: 9
Great quality, thanks for sharing.
audio: 10video: 10
Thanks!
Avoid this copy. Choppy, skips, freezes. Trying for Hulu webrip.
Show More All

User Opinions

Bremanesk9496, mayhem6148072, jc0556675, electsub4061, CypryanV3920, oacuspocus1763, ahmedalves590, ntggl19322, dfuse38, xtchall5 ... And 197 more
LastJoint767
Report a bug Open chat