The Haves and the Have Nots S04E03 HDTV x264-CRiMSON[rartv]

seeders: 165
leechers: 23
updated:
Added by z0n3212.56M in TV
Torrent verified. Downloaded 3,368 times.

DownloadFast Safe Anonymous
movies, software, shows...
  • View all The Haves and the Have Nots episodes
  • Episode: S04E03
  • IMDb link: 2729716
  • TVmaze link: The Haves and the Have Nots
  • Original run: 28 May 2013 — Present
  • Summary:

    Tyler Perry's stage play delivers drama, music and laughter! Grandma Hattie Mae's family is poor and struggling to save her home. The Willis family is filthy rich. When Hattie's daughter, Rose, and son-in-law, Frank, go to work at the Willis estate, it appears as if their financial worries are over. But when Mrs. Willis tries to buy Frank's affections, both families learn that choices often come with a price

    Written by KLOSENTAR31.52K
Available in versions: 720p480pHDTV
The Haves and the Have Nots S04E03 HDTV x264-CRiMSON[rartv] (Size: 232.11 MB)
  rarbg.com.txt 34 bytes
  The.Haves.and.the.Have.Nots.S04E03.HDTV.x264-CRiMSON.mkv 232.11 MB
  The.Haves.and.the.Have.Nots.S04E03.HDTV.x264-CRiMSON.nfo 325 bytes

Description


https://rarbg.to
The.Haves.and.the.Have.Nots.S04E03.HDTV.x264-CRiMSON[rartv]

image
Screens :

image
Mediainfo :

Video
ID : 1
Format : AVC
Format/Info : Advanced Video Codec
Format profile : [email protected]
Format settings, CABAC : Yes
Format settings, ReFrames : 5 frames
Codec ID : V_MPEG4/ISO/AVC
Duration : 41mn 49s
Bit rate : 641 Kbps
Width : 720 pixels
Height : 404 pixels
Display aspect ratio : 16:9
Frame rate mode : Constant
Frame rate : 23.976 (24000/1001) fps
Color space : YUV
Chroma subsampling : 4:2:0
Bit depth : 8 bits
Scan type : Progressive
Bits/(Pixel*Frame) : 0.092
Stream size : 192 MiB (83%)
Writing library : x264 core 148 r2694 3b70645
Encoding settings : cabac=1 / ref=5 / deblock=1:0:0 / analyse=0x3:0x113 / me=umh / subme=8 / psy=1 / psy_rd=1.00:0.15 / mixed_ref=1 / me_range=16 / chroma_me=1 / trellis=1 / 8x8dct=1 / cqm=0 / deadzone=21,11 / fast_pskip=1 / chroma_qp_offset=-3 / threads=12 / lookahead_threads=2 / sliced_threads=0 / nr=0 / decimate=1 / interlaced=0 / bluray_compat=0 / constrained_intra=0 / bframes=3 / b_pyramid=2 / b_adapt=2 / b_bias=0 / direct=3 / weightb=1 / open_gop=0 / weightp=2 / keyint=240 / keyint_min=23 / scenecut=40 / intra_refresh=0 / rc_lookahead=50 / rc=crf / mbtree=1 / crf=19.0 / qcomp=0.60 / qpmin=0 / qpmax=69 / qpstep=4 / ip_ratio=1.40 / aq=1:1.00
Language : English
Default : Yes
Forced : No
Color range : Limited
Matrix coefficients : BT.709

Audio
ID : 2
Format : AAC
Format/Info : Advanced Audio Codec
Format profile : LC
Codec ID : A_AAC
Duration : 41mn 49s
Bit rate : 132 Kbps
Channel(s) : 2 channels
Channel positions : Front: L R
Sampling rate : 48.0 KHz
Frame rate : 46.875 fps (1024 spf)
Compression mode : Lossy
Delay relative to video : 9ms
Stream size : 39.7 MiB (17%)
Default : Yes
Forced : No

Related Torrents

torrent name size files age seed leech

Sharing Widget


Download torrent
232.11 MB
seeders:136
leechers:13
The Haves and the Have Nots S04E03 HDTV x264-CRiMSON[rartv]



To share this torrent use the code below and insert it into comments, status messages, forum posts or your signature.

Torrent: The Haves and the Have Nots S04E03 HDTV x264-CRiMSON[rartv]

Trackers

tracker name
udp://tracker.openbittorrent.com:80/announce
udp://tracker.publicbt.com:80/announce
udp://tracker.coppersurfer.tk:6969/announce
udp://9.rarbg.me:2710/announce
udp://p4p.arenabg.com:1337/announce
http://tracker.trackerfix.com/announce
udp://9.rarbg.to:2710/announce
udp://tracker.opentrackr.org:1337/announce
µTorrent compatible trackers list

Locations

name
KickassTorrents
Torrent hash: 82C2FFB14FC22D152FB59B04178EDF54F5391D29

All Comments

audio
10/10
video
10/10
please, leave only comments related to that torrent
Sign In

Thank You so much for uploading this show, you are awesome, God Bless You
audio: 10video: 10
Thanks
thank you for this one, Waiting for episode 4
To the community of seeders, uploaders, encoders and this website : Thanks for all your efforts to make this possible. Much appreciated! Thank you.
never mind I think it was my computer. It wroks! Thank u sooooo much
I cant upload for sum reason
audio: 10video: 10
thank you

User Opinions

dvdking446834, MochaLove5135, TxStonerGirl5114, richie0682944, a24hrbro1455, VrikiYiacoCoe499, cspr257, BleekGilliam184, NCYHELLE177, hanceyk7 ... And 10 more
Report a bug Open chat