Workaholics S01 Season 1 720p 5.1Ch BluRay ReEnc-DeeJayAhmed

seeders: 45
leechers: 8
updated:
Added by DeeJayStark89.38K in TV
Torrent verified. Downloaded 632 times.

DownloadFast Safe Anonymous
movies, software, shows...
  • View all Workaholics episodes
  • Season: Full 1st season
  • IMDb link: 1610527
  • TVmaze link: Workaholics
  • Original run: 06 April 2011 — Present
  • Summary:

    A single-camera comedy featuring three friends who work together as telemarketers from 9 to 5 and live together from 5 to 9.

    Written by K.0.Z58.98K
Available in versions: 1080p720p480pHDTVWEBRipx265
Workaholics S01 Season 1 720p 5.1Ch BluRay ReEnc-DeeJayAhmed (Size: 1.65 GB)
  DeeJayAhmed Facebook Page.url 70 bytes
  DeeJayAhmed ReEncodes.txt 809 bytes
  DeeJayAhmed Website.url 53 bytes
  Workaholics.S01E01.720p.5.1Ch.BluRay.ReEnc-DeeJayAhmed.mkv 167.32 MB
  Workaholics.S01E01.720p.5.1Ch.BluRay.ReEnc-DeeJayAhmed.srt 38.17 KB
  Workaholics.S01E02.720p.5.1Ch.BluRay.ReEnc-DeeJayAhmed.mkv 170.06 MB
  Workaholics.S01E02.720p.5.1Ch.BluRay.ReEnc-DeeJayAhmed.srt 40.46 KB
  Workaholics.S01E03.720p.5.1Ch.BluRay.ReEnc-DeeJayAhmed.mkv 169.01 MB
  Workaholics.S01E03.720p.5.1Ch.BluRay.ReEnc-DeeJayAhmed.srt 36.93 KB
  Workaholics.S01E04.720p.5.1Ch.BluRay.ReEnc-DeeJayAhmed.mkv 167.61 MB
  Workaholics.S01E04.720p.5.1Ch.BluRay.ReEnc-DeeJayAhmed.srt 41.67 KB
  Workaholics.S01E05.720p.5.1Ch.BluRay.ReEnc-DeeJayAhmed.mkv 168.44 MB
  Workaholics.S01E05.720p.5.1Ch.BluRay.ReEnc-DeeJayAhmed.srt 39.79 KB
  Workaholics.S01E06.720p.5.1Ch.BluRay.ReEnc-DeeJayAhmed.mkv 167.3 MB
  Workaholics.S01E06.720p.5.1Ch.BluRay.ReEnc-DeeJayAhmed.srt 40.67 KB
  Workaholics.S01E07.720p.5.1Ch.BluRay.ReEnc-DeeJayAhmed.mkv 172.11 MB
  Workaholics.S01E07.720p.5.1Ch.BluRay.ReEnc-DeeJayAhmed.srt 41.4 KB
  Workaholics.S01E08.720p.5.1Ch.BluRay.ReEnc-DeeJayAhmed.mkv 169 MB
  Workaholics.S01E08.720p.5.1Ch.BluRay.ReEnc-DeeJayAhmed.srt 44.52 KB
  Workaholics.S01E09.720p.5.1Ch.BluRay.ReEnc-DeeJayAhmed.mkv 169.06 MB
  Workaholics.S01E09.720p.5.1Ch.BluRay.ReEnc-DeeJayAhmed.srt 42.46 KB
  Workaholics.S01E10.720p.5.1Ch.BluRay.ReEnc-DeeJayAhmed.mkv 169.27 MB
  Workaholics.S01E10.720p.5.1Ch.BluRay.ReEnc-DeeJayAhmed.srt 41.66 KB

Description


DeeJayAhmed
https://www.DeeJayAhmed.com
https:///DeeJayAhmedTorrents
Keep Seeding!!=))
Do Comment On The A/V Quality Considering The Size Of The File..!


Video
ID : 1
Format : AVC
Format/Info : Advanced Video Codec
Format profile : [email protected]
Format settings, CABAC : Yes
Format settings, ReFrames : 8 frames
Codec ID : V_MPEG4/ISO/AVC
Duration : 21mn 28s
Bit rate : 948 Kbps
Width : 1 280 pixels
Height : 720 pixels
Display aspect ratio : 16:9
Frame rate mode : Constant
Frame rate : 23.976 (24000/1001) fps
Color space : YUV
Chroma subsampling : 4:2:0
Bit depth : 8 bits
Scan type : Progressive
Bits/(Pixel*Frame) : 0.043
Stream size : 146 MiB (87%)
Default : Yes
Forced : No

Audio
ID : 2
Format : AAC
Format/Info : Advanced Audio Codec
Format profile : HE-AAC / LC
Codec ID : A_AAC
Duration : 21mn 28s
Bit rate : 140 Kbps
Channel(s) : 6 channels
Channel positions : Front: L C R, Side: L R, LFE
Sampling rate : 48.0 KHz / 24.0 KHz
Frame rate : 23.438 fps (1024 spf)
Compression mode : Lossy
Delay relative to video : 31ms
Stream size : 21.5 MiB (13%)
Language : English
Default : Yes
Forced : No


Related Torrents

torrent name size files age seed leech

Sharing Widget


Download torrent
1.65 GB
seeders:48
leechers:9
Workaholics S01 Season 1 720p 5.1Ch BluRay ReEnc-DeeJayAhmed



To share this torrent use the code below and insert it into comments, status messages, forum posts or your signature.

Torrent: Workaholics S01 Season 1 720p 5.1Ch BluRay ReEnc-DeeJayAhmed

Trackers

tracker name
udp://tracker.openbittorrent.com:80/announce
udp://tracker.coppersurfer.tk:6969/announce
udp://p4p.arenabg.com:1337/announce
udp://tracker.blackunicorn.xyz:6969/announce
udp://tracker.opentrackr.org:1337/announce
udp://opentrackr.org:1337/announce
http://tracker.dutchtracking.com/announce
udp://tracker.internetwarriors.net:1337/announce
udp://tracker.piratepublic.com:1337/announce
udp://tracker.sktorrent.net:6969/announce
µTorrent compatible trackers list

Locations

name
KickassTorrents
Torrent hash: E3F0F1AB126F1CD263A53CBE1406D77E93CAEA37

Uploader Comments

1
col_kurtz1189
is this any different from the one u did in 2014?
2
DeeJayStark89.38K
Uploader
This is new, bitrate is lower in this one, the one i use now for every 720p encode, no major difference in settings!

Top Comments

2
mattmaing10.16K
quick question - are these x265 or x264?
2
33rpm5393
In the torrent description under the 'video' heading it says 'format: AVC.' AVC is synonymous with x264, so these are x264 rips.
And if you ever run across the acronym HEVC, that is the same as x265.
Now you know! pirate

All Comments

audio
10/10
video
10/10
please, leave only comments related to that torrent
Sign In

quick question - are these x265 or x264?
In the torrent description under the 'video' heading it says 'format: AVC.' AVC is synonymous with x264, so these are x264 rips.
And if you ever run across the acronym HEVC, that is the same as x265.
Now you know! pirate
much appreciation for the info, my friend! thank you!

thanks for releasing, waiting for other seasons too :)
is this any different from the one u did in 2014?
This is new, bitrate is lower in this one, the one i use now for every 720p encode, no major difference in settings!


User Opinions

santicaz10.15K, murzar5920, Danz2073994, Razzman3528, swanronson2715, bradsmithsite2050, rscgray1573, MaDDHaTTeRR1545, Adm.G.Aladeen1258, col_kurtz1189 ... And 30 more
Report a bug Open chat