Workaholics S02 Season 2 720p 5.1Ch BluRay ReEnc-DeeJayAhmed

seeders: 29
leechers: 12
updated:
Added by DeeJayStark89.47K in TV
Torrent verified. Downloaded 1,342 times.

DownloadFast Safe Anonymous
movies, software, shows...
  • View all Workaholics episodes
  • Season: Full 2nd season
  • IMDb link: 1610527
  • TVmaze link: Workaholics
  • Original run: 06 April 2011 — Present
  • Summary:

    A single-camera comedy featuring three friends who work together as telemarketers from 9 to 5 and live together from 5 to 9.

    Written by K.0.Z58.98K
Available in versions: 1080p720p480pHDTVWEBRipx265
Workaholics S02 Season 2 720p 5.1Ch BluRay ReEnc-DeeJayAhmed (Size: 1.66 GB)
  DeeJayAhmed Facebook Page.url 70 bytes
  DeeJayAhmed ReEncodes.txt 809 bytes
  DeeJayAhmed Website.url 53 bytes
  Workaholics.S02E01.720p.5.1Ch.BluRay.ReEnc-DeeJayAhmed.mkv 169.6 MB
  Workaholics.S02E01.720p.5.1Ch.BluRay.ReEnc-DeeJayAhmed.srt 41.89 KB
  Workaholics.S02E02.720p.5.1Ch.BluRay.ReEnc-DeeJayAhmed.mkv 168.14 MB
  Workaholics.S02E02.720p.5.1Ch.BluRay.ReEnc-DeeJayAhmed.srt 40.86 KB
  Workaholics.S02E03.720p.5.1Ch.BluRay.ReEnc-DeeJayAhmed.mkv 168.6 MB
  Workaholics.S02E03.720p.5.1Ch.BluRay.ReEnc-DeeJayAhmed.srt 43.96 KB
  Workaholics.S02E04.720p.5.1Ch.BluRay.ReEnc-DeeJayAhmed.mkv 170.65 MB
  Workaholics.S02E04.720p.5.1Ch.BluRay.ReEnc-DeeJayAhmed.srt 45.15 KB
  Workaholics.S02E05.720p.5.1Ch.BluRay.ReEnc-DeeJayAhmed.mkv 173.26 MB
  Workaholics.S02E05.720p.5.1Ch.BluRay.ReEnc-DeeJayAhmed.srt 42.48 KB
  Workaholics.S02E06.720p.5.1Ch.BluRay.ReEnc-DeeJayAhmed.mkv 167.98 MB
  Workaholics.S02E06.720p.5.1Ch.BluRay.ReEnc-DeeJayAhmed.srt 40.42 KB
  Workaholics.S02E07.720p.5.1Ch.BluRay.ReEnc-DeeJayAhmed.mkv 168.68 MB
  Workaholics.S02E07.720p.5.1Ch.BluRay.ReEnc-DeeJayAhmed.srt 46.6 KB
  Workaholics.S02E08.720p.5.1Ch.BluRay.ReEnc-DeeJayAhmed.mkv 170.25 MB
  Workaholics.S02E08.720p.5.1Ch.BluRay.ReEnc-DeeJayAhmed.srt 43.53 KB
  Workaholics.S02E09.720p.5.1Ch.BluRay.ReEnc-DeeJayAhmed.mkv 169.31 MB
  Workaholics.S02E09.720p.5.1Ch.BluRay.ReEnc-DeeJayAhmed.srt 48.13 KB
  Workaholics.S02E10.720p.5.1Ch.BluRay.ReEnc-DeeJayAhmed.mkv 170.27 MB
  Workaholics.S02E10.720p.5.1Ch.BluRay.ReEnc-DeeJayAhmed.srt 44.43 KB

Description


DeeJayAhmed
https://www.DeeJayAhmed.com
https:///DeeJayAhmedTorrents
Keep Seeding!!=))
Do Comment On The A/V Quality Considering The Size Of The File..!


Video
ID : 1
Format : AVC
Format/Info : Advanced Video Codec
Format profile : [email protected]
Format settings, CABAC : Yes
Format settings, ReFrames : 8 frames
Codec ID : V_MPEG4/ISO/AVC
Duration : 21mn 38s
Bit rate : 948 Kbps
Width : 1 280 pixels
Height : 720 pixels
Display aspect ratio : 16:9
Frame rate mode : Constant
Frame rate : 23.976 (24000/1001) fps
Color space : YUV
Chroma subsampling : 4:2:0
Bit depth : 8 bits
Scan type : Progressive
Bits/(Pixel*Frame) : 0.043
Stream size : 147 MiB (86%)
Default : Yes
Forced : No

Audio
ID : 2
Format : AAC
Format/Info : Advanced Audio Codec
Format profile : HE-AAC / LC
Codec ID : A_AAC
Duration : 21mn 38s
Bit rate : 147 Kbps
Channel(s) : 6 channels
Channel positions : Front: L C R, Side: L R, LFE
Sampling rate : 48.0 KHz / 24.0 KHz
Frame rate : 23.438 fps (1024 spf)
Compression mode : Lossy
Delay relative to video : 31ms
Stream size : 22.8 MiB (13%)
Language : English
Default : Yes
Forced : No


Related Torrents

torrent name size files age seed leech

Sharing Widget


Download torrent
1.66 GB
seeders:29
leechers:9
Workaholics S02 Season 2 720p 5.1Ch BluRay ReEnc-DeeJayAhmed



To share this torrent use the code below and insert it into comments, status messages, forum posts or your signature.

Torrent: Workaholics S02 Season 2 720p 5.1Ch BluRay ReEnc-DeeJayAhmed

Trackers

tracker name
udp://tracker.openbittorrent.com:80/announce
udp://tracker.coppersurfer.tk:6969/announce
udp://p4p.arenabg.com:1337/announce
udp://tracker.blackunicorn.xyz:6969/announce
udp://tracker.opentrackr.org:1337/announce
udp://opentrackr.org:1337/announce
http://tracker.dutchtracking.com/announce
udp://tracker.internetwarriors.net:1337/announce
udp://tracker.piratepublic.com:1337/announce
udp://tracker.sktorrent.net:6969/announce
µTorrent compatible trackers list

Locations

name
KickassTorrents
Torrent hash: 9DBBBCBA8FE22E3B339BE10B4E971BCF5A37331E

Top Comments

3
33rpm5396
This reminds me of how at work there are certain tasks that no one wants to take the initiative and do themselves. But as soon as you take it upon yourself and start doing it that's when everybody all of the sudden turns into an expert--they gather, stand around and watch, and tell you how you 'should' do it.

All Comments

audio
9/10
video
9/10
please, leave only comments related to that torrent
Sign In

audio: 9video: 9
Thanks so much!
I've noticed something you are not doing with the mkv container settings. Whenever I place files onto a USB/Hard Drive, I'll play the file through my TV. I'll get a few minutes into it and I'll go back to watching whatever is on my TV. Now when I go back to the file to play it goes back to the start automatically whereas I always have mux it so it goes back to where I left it. You need to enter these command lines into your MUX/MKV program. --ui-language en --output ^"^" --clusters-in-meta-seek --engage no_cue_duration --engage no_cue_relative_position
'I always have to mux it' which means I have to get the file off the USB/Hard Drive and then Mux it in the MKV program. I've actually done this to everything I have got from you.
This reminds me of how at work there are certain tasks that no one wants to take the initiative and do themselves. But as soon as you take it upon yourself and start doing it that's when everybody all of the sudden turns into an expert--they gather, stand around and watch, and tell you how you 'should' do it.


User Opinions

mattmaing10.18K, santicaz10.17K, Danz2073994, Razzman3562, DeadLove222711, bradsmithsite2068, MaDDHaTTeRR1545, Adm.G.Aladeen1261, komodo391260, col_kurtz1189 ... And 26 more
Report a bug Open chat